Ошибка

My Little Pony в кино / My Little Pony: The Movie (Джейсон Тиссен) [2017, мультфильм, мюзикл, фэнтези, комедия, приключения, семейный, WEB-DL 1080p] [iTunes]

Ответить на тему
 
Автор Сообщение

DENZEL519

Пол: Пол:Муж

Стаж: 6 лет 6 месяцев

Сообщений: 1391

СССР
Рейтинг

post 24-Дек-2017 22:49 0[+]

[Цитировать] 

My Little Pony в кино / My Little Pony: The Movie
«Встречай новое поколение героев»

Год выпуска: 2017
Страна: Канада , США
Жанр: мультфильм, мюзикл, фэнтези, комедия, приключения, семейный
Продолжительность: 01:39:07
Перевод: Дублированный [iTunes]
Субтитры: Нет
Режиссер: Джейсон Тиссен
Сценарий: Меган МакКарти, Рита Сяо, Майкл Фогель
Продюсер: Хевн Александр, Стивен Дэвис, Брайан Голднер
Оператор: Энтони Ди Нинно
Композитор: Дэниэл Ингрэм
Художник: Ребекка Дарт, Джастин Клаус Хардер
Монтаж: Браден Оберсон
В ролях: Тара Стронг (Princess Twilight Sparkle, озвучка), Эшли Болл (Applejack / Rainbow Dash, озвучка), Андреа Либман (Fluttershy / Pinkie Pie, озвучка), Табита Сен-Жермен (Rarity / Princess Luna / Granny Smith / Muffins, озвучка), Кэти Уэслак (Spike the Dragon, озвучка), Эмили Блант (Tempest Shadow / Fizzlepop Berrytwist, озвучка), Кристин Ченоуэт (Princess Skystar, озвучка), Лив Шрайбер (The Storm King, озвучка), Майкл Пенья (Grubber, озвучка), Сиа (Songbird Serenade, озвучка), Тэй Диггз (Capper, озвучка), Узо Адуба (Queen Novo, озвучка)



Описание: Король Шторм хочет лишить пони магии и захватывает Кантерлот. Под угрозой будущее всей Эквестрии! Чтобы остановить злодея, пони покидают родные края и отправляются в путешествие, полное чудес и опасностей. Им предстоит покорить волшебные горы, погрузиться в подводные миры и даже оказаться на летучем пиратском корабле!


Качество: WEB-DL 1080p
Формат: MKV
Видео кодек: AVC
Аудио кодек: AC3
Видео: 1920x806 (2.40:1), 24.000 fps, AVC, 4 454 Kbps
Аудио: Аудио #1: AC3, 384 Kbps, 48.0 KHz, 6 ch [Rus]


Код:

General
Unique ID                                : 250106990741517642937857354803968448820 (0xBC28DAB1E532FC398A68954800479934)
Complete name                            : My.Little.Pony.The.Movie.2O17.D.WEB-DL.1O8Op.mkv
Format                                   : Matroska
Format version                           : Version 2
File size                                : 3.42 GiB
Duration                                 : 1h 39mn
Overall bit rate                         : 4 936 Kbps
Encoded date                             : UTC 2017-12-24 15:31:50
Writing application                      : mkvmerge v8.3.0 ('Over the Horizon') 64bit
Writing library                          : libebml v1.3.1 + libmatroska v1.4.2
DURATION                                 : 01:39:07.040000000
NUMBER_OF_FRAMES                         : 185845
NUMBER_OF_BYTES                          : 285457920
_STATISTICS_WRITING_APP                  : mkvmerge v8.3.0 ('Over the Horizon') 64bit
_STATISTICS_WRITING_DATE_UTC             : 2017-12-24 15:31:50
_STATISTICS_TAGS                         : BPS DURATION NUMBER_OF_FRAMES NUMBER_OF_BYTES

Video
ID                                       : 1
Format                                   : AVC
Format/Info                              : Advanced Video Codec
Format profile                           : High@L4.0
Format settings, CABAC                   : Yes
Format settings, ReFrames                : 5 frames
Codec ID                                 : V_MPEG4/ISO/AVC
Duration                                 : 1h 39mn
Bit rate                                 : 4 454 Kbps
Width                                    : 1 920 pixels
Height                                   : 806 pixels
Display aspect ratio                     : 2.40:1
Frame rate mode                          : Constant
Frame rate                               : 24.000 fps
Color space                              : YUV
Chroma subsampling                       : 4:2:0
Bit depth                                : 8 bits
Scan type                                : Progressive
Bits/(Pixel*Frame)                       : 0.120
Stream size                              : 3.08 GiB (90%)
Language                                 : English
Default                                  : Yes
Forced                                   : No
Color primaries                          : BT.709
Transfer characteristics                 : BT.709
Matrix coefficients                      : BT.709

Audio
ID                                       : 2
Format                                   : AC-3
Format/Info                              : Audio Coding 3
Mode extension                           : CM (complete main)
Format settings, Endianness              : Big
Codec ID                                 : A_AC3
Duration                                 : 1h 39mn
Bit rate mode                            : Constant
Bit rate                                 : 384 Kbps
Channel(s)                               : 6 channels
Channel positions                        : Front: L C R, Side: L R, LFE
Sampling rate                            : 48.0 KHz
Bit depth                                : 16 bits
Compression mode                         : Lossy
Stream size                              : 272 MiB (8%)
Language                                 : Russian
Default                                  : Yes
Forced                                   : No

Menu
00:00:00.000                             : en:Глава 1
00:05:20.666                             : en:Глава 2
00:12:00.332                             : en:Глава 3
00:17:50.832                             : en:Глава 4
00:22:55.582                             : en:Глава 5
00:29:45.332                             : en:Глава 6
00:36:21.623                             : en:Глава 7
00:42:05.289                             : en:Глава 8
00:47:11.080                             : en:Глава 9
00:55:13.080                             : en:Глава 10
01:01:01.705                             : en:Глава 11
01:08:50.121                             : en:Глава 12
01:15:41.579                             : en:Глава 13
01:21:39.412                             : en:Глава 14
01:27:16.578                             : en:Глава 15

» Первый полнометражный мультфильм детского сериала «Мой маленький пони: Дружба – это чудо», который не стал частью франшизы «Девочки из Эквестрии».

» Лев Шрайбер обычно снимается в фильмах с большим количеством сцен насилия, ориентированных на взрослую аудиторию. Войти в актёрский состав этого мультфильма он согласился, чтобы потом сводить детей хоть на какой-то фильм со своим участием.

» За основу морских пони с мультфильме взят образ мифологических существ гиппокампусов — морских лошадей с рыбьими хвостами.

Сборы в США: $21 885 107
Сборы в мире: + $30 405 111 = $52 290 218
Сборы в России: $2 325 455
Зрители: Россия 687.8 тыс.
Премьера (мир): 4 октября 2017
Премьера (РФ): 12 октября 2017
Рейтинг MPAA: Рекомендуется присутствие родителей



© Оформление by DENZEL519 for http://tapochek.net


info [Профиль]  [ЛС] 

Shinra

Пол: Пол:Муж

Стаж: 6 лет 6 месяцев

Сообщений: 64

Россия
Рейтинг

post 24-Дек-2017 23:57 (спустя 1 час 7 минут) [-]2[+]

[Цитировать] 

Дождался!
Спасибо))
info [Профиль]  [ЛС] 

Snowba11

Пол: Пол:Муж

Стаж: 7 лет 9 месяцев

Сообщений: 6

Россия
Рейтинг

post 25-Дек-2017 04:25 (спустя 4 часа) [-]1[+]

[Цитировать] 

НУ НАКАНЕЦТА!

Срочно качаю)
info [Профиль]  [ЛС] 

Asd25

Стаж: 7 лет 8 месяцев

Сообщений: 4

Рейтинг

post 26-Дек-2017 18:13 (спустя 1 день 13 часов) [-]0[+]

[Цитировать] 

Конечно "вовремя". Ну хотя ради дубляжа...хотя дубляж... Сабы и англ дорожка и было бы гуд
info [Профиль]  [ЛС] 
Показать сообщения:    
Ответить на тему

Текущее время: 16-Янв 21:36

Часовой пояс: GMT + 4



Вы не можете начинать темы
Вы не можете отвечать на сообщения
Вы не можете редактировать свои сообщения
Вы не можете удалять свои сообщения
Вы не можете голосовать в опросах
Вы не можете прикреплять файлы к сообщениям
Вы не можете скачивать файлы