Ошибка

Хвост Феи Фильм 2: Плач Дракона / Fairy Tail Movie 2: Dragon Cry [Movie] [2017] [приключения, комедия, экшн, сёнэн, магия, фентези] [BDRip] [1080p] [Любительский (JAP)]

Ответить на тему
 
Автор Сообщение

xetrin

Пол: Пол:Муж

Стаж: 6 лет 1 месяц

Сообщений: 77

Россия
Рейтинг

post 24-Дек-2017 20:45 1[+]

[Цитировать] 


Хвост Феи Фильм 2: Плач Дракона / Fairy Tail Movie 2: Dragon Cry

Страна: Япония
Год выпуска: 2017 г.
Жанр: приключения, комедия, экшн, сёнэн, магия, фентези
Тип: Фильм
Продолжительность: 01:24:23
Режиссер: Минамикава Тацума
Озвучивание: многоголосое (муж./жен.): Snailhuk, Fretta, Ashvoice, Dexsex, MarieFunker, Lucky4, Ket, Froztbite, Pipets and Мираль [FireDub.Net]
Студия:
Описание: События второго по счёту фильма из вселенной "Сказка о Хвосте феи” вертятся вокруг некоего Плача дракона. Именно так называется таинственный артефакт, обладающий воистину нешуточной силой. Поэтому Хвосту феи назначена очень важная миссия, от которой зависит судьба всего мира - вернуть Плач дракона обратно. Нацу, Хэппи, Люси, Грэй, Эрза, Венди и Карла принялись за исполнение этого непростого поручения.
Субтитры: Нет
Качество: BDRip
Тип релиза: Без хардсаба
Формат видео: MKV
Автор рипа: ReinForce
Ретайминг звука: xetrin

Видео: H.264 | 1920x1080 | 12.7 Mb/s | 23.976 fps | 8 bits
Аудио 1: FLAC | Встроенное | 1014 kb/s | 48kHz | 2 ch | Язык: Японский
Аудио 2: DTS | Внешнее | 3219 kb/s | 48kHz | 6 ch | Язык: Японский
Аудио 3: AAC | Внешнее | 192 kb/s | 48kHz | 2 ch | Язык: Русский
General
Unique ID : 315847213306419822541464968105213910330 (0xED9DF5E99B63246F9FAF8D71DE3D5D3A)
Complete name : K:\[ReinForce]_Gekijouban_Fairy_Tail_~Dragon_Cry~_[BDRip_1080p_x264_FLAC]\[ReinForce]_Gekijouban_Fairy_Tail_~Dragon_Cry~_[BDRip_1920x1080_x264_FLAC].mkv
Format : Matroska
Format version : Version 4 / Version 2
File size : 8.07 GiB
Duration : 1 h 24 min
Overall bit rate mode : Variable
Overall bit rate : 13.7 Mb/s
Encoded date : UTC 2017-11-26 15:55:20
Writing application : mkvmerge v18.0.0 ('Apricity') 64-bit
Writing library : libebml v1.3.5 + libmatroska v1.4.8

Video
ID : 1
Format : AVC
Format/Info : Advanced Video Codec
Format profile : High@L4
Format settings, CABAC : Yes
Format settings, ReFrames : 4 frames
Codec ID : V_MPEG4/ISO/AVC
Duration : 1 h 24 min
Bit rate : 12.7 Mb/s
Width : 1 920 pixels
Height : 1 080 pixels
Display aspect ratio : 16:9
Frame rate mode : Constant
Frame rate : 23.976 (24000/1001) FPS
Color space : YUV
Chroma subsampling : 4:2:0
Bit depth : 8 bits
Scan type : Progressive
Bits/(Pixel*Frame) : 0.255
Stream size : 7.47 GiB (93%)
Writing library : x264 core 152
Encoding settings : opencl=1 / cabac=1 / ref=4 / deblock=1:-2:-2 / analyse=0x3:0x113 / me=tesa / subme=10 / psy=1 / psy_rd=0.70:0.00 / mixed_ref=0 / me_range=32 / chroma_me=1 / trellis=2 / 8x8dct=1 / cqm=0 / deadzone=21,11 / fast_pskip=1 / chroma_qp_offset=-2 / threads=8 / lookahead_threads=1 / sliced_threads=0 / nr=0 / decimate=1 / interlaced=0 / bluray_compat=0 / constrained_intra=0 / bframes=9 / b_pyramid=2 / b_adapt=2 / b_bias=0 / direct=3 / weightb=1 / open_gop=0 / weightp=2 / keyint=250 / keyint_min=23 / scenecut=40 / intra_refresh=0 / rc_lookahead=40 / rc=crf / mbtree=1 / crf=14.0 / qcomp=0.70 / qpmin=10 / qpmax=20 / qpstep=4 / ip_ratio=1.40 / aq=1:1.00
Default : Yes
Forced : No

Audio
ID : 2
Format : FLAC
Format/Info : Free Lossless Audio Codec
Codec ID : A_FLAC
Duration : 1 h 24 min
Bit rate mode : Variable
Bit rate : 1 014 kb/s
Channel(s) : 2 channels
Channel positions : Front: L R
Sampling rate : 48.0 kHz
Frame rate : 10.417 FPS (4608 spf)
Bit depth : 24 bits
Stream size : 612 MiB (7%)
Writing library : Lavf57.83.100
Language : Japanese
Default : Yes
Forced : No
info [Профиль]  [ЛС] 

Full_mad

Стаж: 4 года 10 месяцев

Сообщений: 178

Остров Рождества
Рейтинг

post 25-Дек-2017 07:40 (спустя 10 часов) [-]0[+]

[Цитировать] 

Будет ли выложен первый фильм ?

_________________
Что бы мне скачать ? kolob_135
info [Профиль]  [ЛС] 

Shpoler

Пол: Пол:Муж

Стаж: 6 лет 5 месяцев

Сообщений: 28

Россия
Рейтинг

post 25-Дек-2017 16:01 (спустя 8 часов) [-]0[+]

[Цитировать] 

Full_mad писал(а):

Будет ли выложен первый фильм ?
уже давно есть

добавлено спустя 5 секунд:

Full_mad писал(а):

Будет ли выложен первый фильм ?
уже давно есть
info [Профиль]  [ЛС] 

puskay

Стаж: 8 лет 10 месяцев

Сообщений: 75

СССР
Рейтинг

post 25-Дек-2017 17:13 (спустя 1 час 12 минут) [-]0[+]

[Цитировать] 

А на бытовом плеере такое пойдёт? Нет варианта со встроенной звуковой дорожкой?
info [Профиль]  [ЛС] 
Показать сообщения:    
Ответить на тему

Текущее время: 22-Июн 07:23

Часовой пояс: GMT + 4



Вы не можете начинать темы
Вы не можете отвечать на сообщения
Вы не можете редактировать свои сообщения
Вы не можете удалять свои сообщения
Вы не можете голосовать в опросах
Вы не можете прикреплять файлы к сообщениям
Вы не можете скачивать файлы