Ошибка

(Score) Pyre - Original Soundtrack (Darren Korb) - 2017, FLAC (tracks), lossless [WEB]

Ответить на тему
 
Автор Сообщение

Dextor

Пол: Пол:Муж

Стаж: 8 лет 8 месяцев

Сообщений: 330

Россия
Рейтинг

post 23-Дек-2017 08:35 0[+]

[Цитировать] 

Pyre - Original Soundtrack (Darren Korb)


pic="http://i6.imageban.ru/out/2017/12/23/7d3763e9376a29d557bf233a411b72f8.png"


Жанр: Score
Год издания данного носителя: 2017
Страна-производитель носителя: USA
Аудио кодек: FLAC
Тип рипа: tracks
Битрейт аудио: lossless
Продолжительность: 01:51:04
Источник: supergiantgames / bandcamp
Полиграфия: Отсутствует
Треклист:
1. In the Flame (03:09)
2. Downriver (00:37)
3. Downside Ballad (04:10)
4. Path to Glory (03:14)
5. Life Sentence (01:46)
6. Surviving Exile (03:25)
7. Forbidden Knowledge (03:26)
8. Moon-Touched (01:16)
9. Through the Valley (03:35)
10. Night Howlers (03:19)
11. The Herald (01:17)
12. Mourning Song (01:12)
13. The Eight Scribes (03:54)
14. Glorious Tradition (03:23)
15. Flutter Fly (01:18)
16. Thrash Pack (03:54)
17. A Step Closer (02:12)
18. Dirty Deal (03:08)
19. Sinking Feeling (03:32)
20. Dread Design (03:59)
21. Snake Soul (01:42)
22. Strange Voyage (04:49)
23. Quest for Honor (01:23)
24. Knights of the Sea (03:41)
25. Vagrant Song (02:35)
26. Shattered Lands (03:43)
27. Talon Sheath (01:06)
28. Sky Dance (03:39)
29. Certain Plan (01:40)
30. Grand Ceremony (02:18)
31. To the Stars (03:56)
32. The Old Ways (01:45)
33. Never to Return (03:59)
34. Time Passes (01:26)
35. The Blackwagon (01:19)
36. Rage of Demons (04:22)
37. Will of the Scribes (02:57)
38. New Union (02:31)
39. Bound Together (06:09)
Lossless Audio Checker 2.0.6 logfile from Saturday 29 July 2017 11:30:04 PM 
File: Darren Korb - Pyre- Original Soundtrack - 01 In the Flame.flac
Result: Clean
File: Darren Korb - Pyre- Original Soundtrack - 02 Downriver.flac
Result: Clean
File: Darren Korb - Pyre- Original Soundtrack - 03 Downside Ballad.flac
Result: Clean
File: Darren Korb - Pyre- Original Soundtrack - 04 Path to Glory.flac
Result: Clean
File: Darren Korb - Pyre- Original Soundtrack - 05 Life Sentence.flac
Result: Clean
File: Darren Korb - Pyre- Original Soundtrack - 06 Surviving Exile.flac
Result: Clean
File: Darren Korb - Pyre- Original Soundtrack - 07 Forbidden Knowledge.flac
Result: Clean
File: Darren Korb - Pyre- Original Soundtrack - 08 Moon-Touched.flac
Result: Clean
File: Darren Korb - Pyre- Original Soundtrack - 09 Through the Valley.flac
Result: Clean
File: Darren Korb - Pyre- Original Soundtrack - 10 Night Howlers.flac
Result: Clean
File: Darren Korb - Pyre- Original Soundtrack - 11 The Herald.flac
Result: Clean
File: Darren Korb - Pyre- Original Soundtrack - 12 Mourning Song.flac
Result: Clean
File: Darren Korb - Pyre- Original Soundtrack - 13 The Eight Scribes.flac
Result: Clean
File: Darren Korb - Pyre- Original Soundtrack - 14 Glorious Tradition.flac
Result: Clean
File: Darren Korb - Pyre- Original Soundtrack - 15 Flutter Fly.flac
Result: Clean
File: Darren Korb - Pyre- Original Soundtrack - 16 Thrash Pack.flac
Result: Clean
File: Darren Korb - Pyre- Original Soundtrack - 17 A Step Closer.flac
Result: Clean
File: Darren Korb - Pyre- Original Soundtrack - 18 Dirty Deal.flac
Result: Clean
File: Darren Korb - Pyre- Original Soundtrack - 19 Sinking Feeling.flac
Result: Clean
File: Darren Korb - Pyre- Original Soundtrack - 20 Dread Design.flac
Result: Clean
File: Darren Korb - Pyre- Original Soundtrack - 21 Snake Soul.flac
Result: Clean
File: Darren Korb - Pyre- Original Soundtrack - 22 Strange Voyage.flac
Result: Clean
File: Darren Korb - Pyre- Original Soundtrack - 23 Quest for Honor.flac
Result: Upsampled
File: Darren Korb - Pyre- Original Soundtrack - 24 Knights of the Sea.flac
Result: Clean
File: Darren Korb - Pyre- Original Soundtrack - 25 Vagrant Song.flac
Result: Clean
File: Darren Korb - Pyre- Original Soundtrack - 26 Shattered Lands.flac
Result: Clean
File: Darren Korb - Pyre- Original Soundtrack - 27 Talon Sheath.flac
Result: Clean
File: Darren Korb - Pyre- Original Soundtrack - 28 Sky Dance.flac
Result: Clean
File: Darren Korb - Pyre- Original Soundtrack - 29 Certain Plan.flac
Result: Clean
File: Darren Korb - Pyre- Original Soundtrack - 30 Grand Ceremony.flac
Result: Upsampled
File: Darren Korb - Pyre- Original Soundtrack - 31 To the Stars.flac
Result: Clean
File: Darren Korb - Pyre- Original Soundtrack - 32 The Old Ways.flac
Result: Clean
File: Darren Korb - Pyre- Original Soundtrack - 33 Never to Return.flac
Result: Clean
File: Darren Korb - Pyre- Original Soundtrack - 34 Time Passes.flac
Result: Clean
File: Darren Korb - Pyre- Original Soundtrack - 35 The Blackwagon.flac
Result: Upsampled
File: Darren Korb - Pyre- Original Soundtrack - 36 Rage of Demons.flac
Result: Clean
File: Darren Korb - Pyre- Original Soundtrack - 37 Will of the Scribes.flac
Result: Upsampled
File: Darren Korb - Pyre- Original Soundtrack - 38 New Union.flac
Result: Clean
File: Darren Korb - Pyre- Original Soundtrack - 39 Bound Together.flac
Result: Clean
 
foobar2000 1.3.7 / Замер динамического диапазона (DR) 1.1.1
Дата отчёта: 2017-08-13 09:45:56
--------------------------------------------------------------------------------
Анализ: Darren Korb / Pyre: Original Soundtrack
--------------------------------------------------------------------------------
DR Пики RMS Продолжительность трека
--------------------------------------------------------------------------------
DR5 -0.19 дБ -6.71 дБ 3:10 01-In the Flame
DR10 -0.19 дБ -12.94 дБ 0:38 02-Downriver
DR6 -0.19 дБ -8.42 дБ 4:10 03-Downside Ballad
DR6 -0.20 дБ -8.39 дБ 3:15 04-Path to Glory
DR9 -0.19 дБ -12.01 дБ 1:46 05-Life Sentence
DR8 -0.19 дБ -9.15 дБ 3:25 06-Surviving Exile
DR9 -0.19 дБ -11.06 дБ 3:26 07-Forbidden Knowledge
DR6 -0.19 дБ -7.30 дБ 1:16 08-Moon-Touched
DR7 -0.19 дБ -8.47 дБ 3:36 09-Through the Valley
DR9 -0.23 дБ -10.59 дБ 3:19 10-Night Howlers
DR7 -0.19 дБ -8.77 дБ 1:18 11-The Herald
DR9 -0.20 дБ -12.42 дБ 1:13 12-Mourning Song
DR8 -0.19 дБ -9.32 дБ 3:55 13-The Eight Scribes
DR6 -0.16 дБ -7.75 дБ 3:23 14-Glorious Tradition
DR8 -0.19 дБ -9.48 дБ 1:18 15-Flutter Fly
DR4 -0.19 дБ -5.53 дБ 3:55 16-Thrash Pack
DR7 -0.16 дБ -8.03 дБ 2:12 17-A Step Closer
DR10 -0.19 дБ -10.74 дБ 3:08 18-Dirty Deal
DR7 -0.19 дБ -9.15 дБ 3:32 19-Sinking Feeling
DR8 -0.19 дБ -9.74 дБ 4:00 20-Dread Design
DR7 -0.19 дБ -8.92 дБ 1:43 21-Snake Soul
DR8 -0.19 дБ -9.31 дБ 4:49 22-Strange Voyage
DR7 -0.20 дБ -7.96 дБ 1:23 23-Quest for Honor
DR5 -0.16 дБ -7.14 дБ 3:41 24-Knights of the Sea
DR10 -0.20 дБ -13.57 дБ 2:35 25-Vagrant Song
DR7 -0.19 дБ -9.20 дБ 3:44 26-Shattered Lands
DR8 -0.19 дБ -9.54 дБ 1:06 27-Talon Sheath
DR7 -0.16 дБ -8.41 дБ 3:40 28-Sky Dance
DR9 -0.19 дБ -10.42 дБ 1:41 29-Certain Plan
DR8 -0.20 дБ -10.26 дБ 2:19 30-Grand Ceremony
DR9 -0.19 дБ -10.17 дБ 3:56 31-To the Stars
DR10 -0.19 дБ -11.11 дБ 1:46 32-The Old Ways
DR6 -0.19 дБ -8.70 дБ 3:59 33-Never to Return
DR9 -0.19 дБ -10.75 дБ 1:27 34-Time Passes
DR7 -0.20 дБ -9.15 дБ 1:20 35-The Blackwagon
DR8 -0.19 дБ -8.86 дБ 4:23 36-Rage of Demons
DR7 -0.20 дБ -8.50 дБ 2:58 37-Will of the Scribes
DR8 -0.20 дБ -10.02 дБ 2:32 38-New Union
DR5 -0.19 дБ -8.28 дБ 6:10 39-Bound Together
--------------------------------------------------------------------------------
Количество треков: 39
Реальные значения DR: DR8
Частота: 96000 Гц
Каналов: 2
Разрядность: 24
Битрейт: 2782 кбит/с
Кодек: FLAC
================================================================================
Оригинальный саундтрек Pyre: более 90 минут музыкальных композиций Даррена Корба.
Вокал: Даррен Корб и Эшли Баррет. В альбом также включены бонусные материалы и аранжировки, не вошедшие в игру.

released July 25, 2017

This is the Original Soundtrack for the game "Pyre" from Supergiant Games.

Music and lyrics by Darren Korb
Produced and recorded by Darren Korb
Vocals by Darren Korb and Ashley Barrett
Mastered by Hans Dekline
Album art by Jen Zee
info [Профиль]  [ЛС] 

Dextor

Пол: Пол:Муж

Стаж: 8 лет 8 месяцев

Сообщений: 330

Россия
Рейтинг

post 25-Дек-2017 01:04 (спустя 1 день 16 часов) [-]-1[+]

[Цитировать] 

Раздал 16.75 GB ( пруф http://ibn.im/4f86vVKLlN ), с раздачи ушёл.
info [Профиль]  [ЛС] 
Показать сообщения:    
Ответить на тему

Текущее время: 16-Янв 15:12

Часовой пояс: GMT + 4



Вы не можете начинать темы
Вы не можете отвечать на сообщения
Вы не можете редактировать свои сообщения
Вы не можете удалять свои сообщения
Вы не можете голосовать в опросах
Вы не можете прикреплять файлы к сообщениям
Вы не можете скачивать файлы