Ошибка

Стань легендой! Бигфут Младший / The Son of Bigfoot (Жереми Дегрусон, Бен Стассен) [2017, мультфильм, фэнтези, комедия, семейный, BDRip 1080p] [iTunes]

Ответить на тему
 
Автор Сообщение

DENZEL519

Пол: Пол:Муж

Стаж: 6 лет 6 месяцев

Сообщений: 1406

СССР
Рейтинг

post 14-Дек-2017 11:00 1[+]

[Цитировать] 

Стань легендой! Бигфут Младший / The Son of Bigfoot
-

Год выпуска: 2017
Страна: Франция , Бельгия
Жанр: мультфильм, фэнтези, комедия, семейный
Продолжительность: 01:32:15
Перевод: Дублированный [iTunes]
Субтитры: Нет
Режиссер: Жереми Дегрусон, Бен Стассен
Сценарий: Боб Барлен, Кэллан Брункер
Продюсер: Джина Галло, Мими Мэйнард, Домоник Парис
Оператор: Жереми Дегрусон, Бен Стассен
Композитор: Puggy
Художник: Сильви Лакруа
В ролях: Синда Адамс (Secretary / Waitress, озвучка), Джордж Бэббит (Truck Driver, озвучка), Лайла Берзиньш (Weecha / 911 Operator, озвучка), Джои Камен (Principal Jones, озвучка), Джефф Дусетте (Fat Dan / Tim / Tech Support Operator, озвучка), Дэвид Эпштейн (Charlie, озвучка), Паппи Фолкнер (Adam, озвучка), Сэнди Фокс (Tina, озвучка), Кайл Хеберт (Simpson, озвучка), Мариев Херингтон (Shelly, озвучка), Алексис Лэнг (Japanee Man #3, озвучка), Юрий Ловенталь (Tony / Japanese Man #2, озвучка)



Описание: Обычный подросток по имени Адам отправляется на поиски своего давно пропавшего отца и попадает в приключение мифических масштабов. Его мир переворачивается вверх дном, когда оказывается, что в нем течет кровь последних легендарных хранителей леса — бигфутов. Теперь ему открыты такие способности как суперскорость, живительное прикосновение и возможность понимать язык животных.


Качество: BDRip 1080p
Формат: MKV
Видео кодек: AVC
Аудио кодек: AC3
Видео: 1920x1080 (16:9), 23.976 fps, AVC, 12.6 Mbps
Аудио: Аудио #1: AC3, 384 Kbps, 48.0 KHz, 6 ch [Rus]
Аудио #2: AC3, 640 Kbps, 48.0 KHz, 6 ch [Eng]


Код:

General
Unique ID                                : 203226116744426253229497701942337939367 (0x98E3ED26B6839F5F89F75FA27FA727A7)
Complete name                            : The.Son.of.Bigfoot.2017.BDRip.1080p.ExKinoRay.mkv
Format                                   : Matroska
Format version                           : Version 4 / Version 2
File size                                : 8.81 GiB
Duration                                 : 1h 32mn
Overall bit rate                         : 13.7 Mbps
Movie name                               : The Son of Bigfoot 2017 from ExKinoRay
Encoded date                             : UTC 2017-12-13 23:51:14
Writing application                      : mkvmerge v18.0.0 ('Apricity') 64-bit
Writing library                          : libebml v1.3.5 + libmatroska v1.4.8
DURATION                                 : 01:32:14.400000000
NUMBER_OF_FRAMES                         : 172950
NUMBER_OF_BYTES                          : 265651200
_STATISTICS_WRITING_APP                  : mkvmerge v18.0.0 ('Apricity') 64-bit
_STATISTICS_WRITING_DATE_UTC             : 2017-12-13 23:51:14
_STATISTICS_TAGS                         : BPS DURATION NUMBER_OF_FRAMES NUMBER_OF_BYTES

Video
ID                                       : 1
Format                                   : AVC
Format/Info                              : Advanced Video Codec
Format profile                           : High@L4.1
Format settings, CABAC                   : Yes
Format settings, ReFrames                : 4 frames
Codec ID                                 : V_MPEG4/ISO/AVC
Duration                                 : 1h 32mn
Bit rate                                 : 12.6 Mbps
Width                                    : 1 920 pixels
Height                                   : 1 080 pixels
Display aspect ratio                     : 16:9
Frame rate mode                          : Constant
Frame rate                               : 23.976 fps
Color space                              : YUV
Chroma subsampling                       : 4:2:0
Bit depth                                : 8 bits
Scan type                                : Progressive
Bits/(Pixel*Frame)                       : 0.254
Stream size                              : 7.97 GiB (91%)
Writing library                          : x264 core 152 r2851 ba24899
Encoding settings                        : cabac=1 / ref=4 / deblock=1:-3:-3 / analyse=0x3:0x113 / me=umh / subme=11 / psy=1 / psy_rd=1.05:0.00 / mixed_ref=1 / me_range=32 / chroma_me=1 / trellis=2 / 8x8dct=1 / cqm=0 / deadzone=21,11 / fast_pskip=0 / chroma_qp_offset=-2 / threads=12 / lookahead_threads=2 / sliced_threads=0 / nr=0 / decimate=0 / interlaced=0 / bluray_compat=0 / constrained_intra=0 / bframes=7 / b_pyramid=2 / b_adapt=2 / b_bias=0 / direct=3 / weightb=1 / open_gop=0 / weightp=2 / keyint=240 / keyint_min=23 / scenecut=40 / intra_refresh=0 / rc_lookahead=100 / rc=2pass / mbtree=0 / bitrate=12640 / ratetol=1.0 / qcomp=0.65 / qpmin=0 / qpmax=69 / qpstep=4 / cplxblur=20.0 / qblur=0.5 / vbv_maxrate=50000 / vbv_bufsize=62500 / nal_hrd=none / filler=0 / ip_ratio=1.30 / pb_ratio=1.20 / aq=1:0.85
Language                                 : English
Default                                  : Yes
Forced                                   : No
Color primaries                          : BT.709
Transfer characteristics                 : BT.709
Matrix coefficients                      : BT.709

Audio #1
ID                                       : 2
Format                                   : AC-3
Format/Info                              : Audio Coding 3
Mode extension                           : CM (complete main)
Format settings, Endianness              : Big
Codec ID                                 : A_AC3
Duration                                 : 1h 32mn
Bit rate mode                            : Constant
Bit rate                                 : 384 Kbps
Channel(s)                               : 6 channels
Channel positions                        : Front: L C R, Side: L R, LFE
Sampling rate                            : 48.0 KHz
Bit depth                                : 16 bits
Compression mode                         : Lossy
Stream size                              : 253 MiB (3%)
Title                                    : iTunes
Language                                 : Russian
Default                                  : Yes
Forced                                   : No

Audio #2
ID                                       : 3
Format                                   : AC-3
Format/Info                              : Audio Coding 3
Mode extension                           : CM (complete main)
Format settings, Endianness              : Big
Codec ID                                 : A_AC3
Duration                                 : 1h 32mn
Bit rate mode                            : Constant
Bit rate                                 : 640 Kbps
Channel(s)                               : 6 channels
Channel positions                        : Front: L C R, Side: L R, LFE
Sampling rate                            : 48.0 KHz
Bit depth                                : 16 bits
Compression mode                         : Lossy
Stream size                              : 422 MiB (5%)
Title                                    : Original
Language                                 : English
Default                                  : No
Forced                                   : No

Menu
00:00:00.000                             : en:00:00:00.000
00:07:24.194                             : en:00:07:24.194
00:14:53.768                             : en:00:14:53.768
00:22:11.789                             : en:00:22:11.789
00:30:27.492                             : en:00:30:27.492
00:39:25.613                             : en:00:39:25.613
00:48:17.269                             : en:00:48:17.269
00:55:43.674                             : en:00:55:43.674
01:02:39.130                             : en:01:02:39.130
01:11:40.213                             : en:01:11:40.213
01:20:37.082                             : en:01:20:37.082
01:27:56.521                             : en:01:27:56.521

Бюджет: $30 000 000
Сборы в России: $2 301 326
Зрители: Россия 745.1 тыс.
Премьера (мир): 26 июля 2017
Премьера (РФ): 27 июля 2017
Релиз на DVD: 18 декабря 2017, «НД Плэй»



© Оформление by DENZEL519 for http://tapochek.net


info [Профиль]  [ЛС] 

Kaiser88

Пол: Пол:Муж

Стаж: 6 лет 6 месяцев

Сообщений: 142

СССР
Рейтинг

post 14-Дек-2017 19:11 (спустя 8 часов) [-]4[+]

[Цитировать] 

Тот момент, когда ты понимаешь - ты окончательно вырос из мультиков ибо в голове, моментально выстроилась причинно-следственная связь рождения главного героя, а именно то, что его маму вые**ла лесная обезьяна.
info [Профиль]  [ЛС] 
Показать сообщения:    
Ответить на тему

Текущее время: 20-Янв 19:10

Часовой пояс: GMT + 4



Вы не можете начинать темы
Вы не можете отвечать на сообщения
Вы не можете редактировать свои сообщения
Вы не можете удалять свои сообщения
Вы не можете голосовать в опросах
Вы не можете прикреплять файлы к сообщениям
Вы не можете скачивать файлы