Ошибка
Загрузка...

Королевская битва / Battle Royale (Киндзи Фукасаку) [2000 г., триллер, драма, приключения, BDRip 1080p] | Режиссерская версия

Ответить на тему
 
Автор Сообщение

Косячок

Пол: Пол:Муж

Стаж: 7 лет 2 месяца

Сообщений: 127

Рейтинг

post 10-Дек-2017 01:18 2[+]

[Цитировать] 


Королевская битва | Battle Royale

Год выпуска: 2000
Страна: Япония
Жанр: триллер, драма, приключения
Продолжительность: 02:01:56
Перевод: Дублированный (со вставками Гаврилова на расширенные места) + Авторский (одноголосый закадровый) А.Гаврилов
Язык субтитров: Русские | Полные, Английские | Полные
Режиссер: Киндзи Фукасаку
В ролях: Такеши Китано, Татсуя Фудживара, Аки Маэда, Юко Миямура, Таро Ямамото, Ко Шибасаки, Чиаки Курияма, Соускэ Такаока, Такаши Цукамото, Юкихиро Котани
Описание: Такого еще не было, но будет! Очень скоро! Родители лишатся работы, а дети выйдя из-под контроля, учинят террор и массовый бойкот взрослым. Ответная мера: «Королевская битва» — санкционированная правительством жестокая игра, в которой неуправляемых школьников заставят участвовать под дулами армейских автоматов.
На необитаемом острове 42 подростка будут 3 дня безжалостно уничтожать друг друга, чтобы победить. Только одному игроку разрешено вернуться на большую землю живым. Невозмутимый распорядитель зловещей игры — школьный учитель Китано. Свое имя дал герою исполнитель этой роли всемирно известный культовый актер и режиссер Такеши Китано. Кровь льется рекой, но учитель Китано гарантирует не только соблюдение условий игры, но и ее условность.
Юные герои гибнут, точь-в-точь как в компьютерной «стрелялке». Вот только мораль фильма не виртуальная. Из безумного электронного будущего она обращена в сегодняшний день.

Качество: BDRip 1080p
Формат: MKV
Видео кодек: AVC
Аудио кодек: AC3
Видео: 1916x1080 (16:9), 8440 Кбит/сек, 23,976 кадр/сек, AVC, High@L4.1, 0.253 Бит/(Пиксели*Кадры)
Аудио # 1: AC-3, 448 Кбит/сек, 6 канала(ов), 48,0 КГц - Дублированный | Русский
Аудио # 2: AC-3, 448 Кбит/сек, 6 канала(ов), 48,0 КГц - Авторский | А.Гаврилов
Аудио # 3: AC-3, 448 Кбит/сек, 6 канала(ов), 48,0 КГц - Оригинал | Японский
Общее
Уникальный идентификатор : 219317214771815885448297922396586594783 (0xA4FEF58935069804A6C6361CB04D51DF)
Полное имя : M:\Korolevskaja.bitva.2000.BDRip.1080p.mkv
Формат : Matroska
Версия формата : Version 4 / Version 2
Размер файла : 8,33 Гбайт
Продолжительность : 2 ч. 1 м.
Общий поток : 9784 Кбит/сек
Название фильма : Королевская битва.(2000).BDRip.1080p
Дата кодирования : UTC 2017-12-08 18:07:01
Программа кодирования : mkvmerge v7.9.0 ('Birds') 64bit
Библиотека кодирования : libebml v1.3.1 + libmatroska v1.4.2

Видео
Идентификатор : 1
Формат : AVC
Формат/Информация : Advanced Video Codec
Профиль формата : High@L4.1
Настройки формата : CABAC / 4 Ref Frames
Параметр CABAC формата : Да
Параметр RefFrames формата : 4 кадра
Идентификатор кодека : V_MPEG4/ISO/AVC
Продолжительность : 2 ч. 1 м.
Битрейт : 8440 Кбит/сек
Ширина : 1916 пикселей
Высота : 1080 пикселей
Соотношение сторон : 16:9
Режим частоты кадров : Постоянный
Частота кадров : 23,976 (24000/1001) кадра/сек
Цветовое пространство : YUV
Субдискретизация насыщенности : 4:2:0
Битовая глубина : 8 бит
Тип развёртки : Прогрессивная
Бит/(Пиксели*Кадры) : 0.170
Размер потока : 7,19 Гбайт (86%)
Заголовок : Королевская битва.(2000).BDRip.1080p
Библиотека кодирования : x264 core 146 r2538 121396c
Настройки программы : cabac=1 / ref=4 / deblock=1:-3:-2 / analyse=0x3:0x133 / me=umh / subme=11 / psy=1 / psy_rd=1.00:0.00 / mixed_ref=1 / me_range=48 / chroma_me=1 / trellis=2 / 8x8dct=1 / cqm=0 / deadzone=21,11 / fast_pskip=0 / chroma_qp_offset=-2 / threads=12 / lookahead_threads=2 / sliced_threads=0 / nr=0 / decimate=1 / interlaced=0 / bluray_compat=0 / constrained_intra=0 / bframes=7 / b_pyramid=2 / b_adapt=2 / b_bias=0 / direct=3 / weightb=1 / open_gop=0 / weightp=2 / keyint=240 / keyint_min=23 / scenecut=40 / intra_refresh=0 / rc=2pass / mbtree=0 / bitrate=8440 / ratetol=2.0 / qcomp=0.60 / qpmin=0 / qpmax=69 / qpstep=4 / cplxblur=20.0 / qblur=0.5 / ip_ratio=1.40 / pb_ratio=1.30 / aq=2:0.70
Язык : English
Default : Да
Forced : Нет

Аудио #1
Идентификатор : 2
Формат : AC-3
Формат/Информация : Audio Coding 3
Идентификатор кодека : A_AC3
Продолжительность : 2 ч. 1 м.
Вид битрейта : Постоянный
Битрейт : 448 Кбит/сек
Каналы : 6 каналов
Расположение каналов : Front: L C R, Side: L R, LFE
Частота : 48,0 КГц
Частота кадров : 31,250 кадров/сек (1536 SPF)
Битовая глубина : 16 бит
Метод сжатия : С потерями
Размер потока : 390 Мбайт (5%)
Заголовок : Dub
Язык : Russian
ServiceKind/String : Complete Main
Default : Да
Forced : Нет

Аудио #2
Идентификатор : 3
Формат : AC-3
Формат/Информация : Audio Coding 3
Идентификатор кодека : A_AC3
Продолжительность : 2 ч. 1 м.
Вид битрейта : Постоянный
Битрейт : 448 Кбит/сек
Каналы : 6 каналов
Расположение каналов : Front: L C R, Side: L R, LFE
Частота : 48,0 КГц
Частота кадров : 31,250 кадров/сек (1536 SPF)
Битовая глубина : 16 бит
Метод сжатия : С потерями
Размер потока : 390 Мбайт (5%)
Заголовок : Гаврилов
Язык : Russian
ServiceKind/String : Complete Main
Default : Нет
Forced : Нет

Аудио #3
Идентификатор : 4
Формат : AC-3
Формат/Информация : Audio Coding 3
Идентификатор кодека : A_AC3
Продолжительность : 2 ч. 1 м.
Вид битрейта : Постоянный
Битрейт : 448 Кбит/сек
Каналы : 6 каналов
Расположение каналов : Front: L C R, Side: L R, LFE
Частота : 48,0 КГц
Частота кадров : 31,250 кадров/сек (1536 SPF)
Битовая глубина : 16 бит
Метод сжатия : С потерями
Размер потока : 391 Мбайт (5%)
Заголовок : Jpn
Язык : Japanese
ServiceKind/String : Complete Main
Default : Нет
Forced : Нет

Текст #1
Идентификатор : 5
Формат : UTF-8
Идентификатор кодека : S_TEXT/UTF8
Идентификатор кодека/Информация : UTF-8 Plain Text
Продолжительность : 2 ч. 0 м.
Битрейт : 64 бит/сек
ElementCount : 1056
Размер потока : 56,9 Кбайт (0%)
Заголовок : Rus full
Язык : Russian
Default : Нет
Forced : Нет

Текст #2
Идентификатор : 6
Формат : UTF-8
Идентификатор кодека : S_TEXT/UTF8
Идентификатор кодека/Информация : UTF-8 Plain Text
Продолжительность : 1 ч. 57 м.
Битрейт : 36 бит/сек
ElementCount : 1031
Размер потока : 31,3 Кбайт (0%)
Заголовок : Eng full
Язык : English
Default : Нет
Forced : Нет
info [Профиль]  [ЛС] 

DARK_LOTOS

Пол: Пол:Муж

Стаж: 7 лет 2 месяца

Сообщений: 74

Россия
Рейтинг

post 10-Дек-2017 07:20 (спустя 6 часов) [-]6[+]

[Цитировать] 

На уютном маленьком острове,соберётся 8д класс,со своим замечательным и добрым учителем,чтобы поиграть в увлекательную игру под названием-Зарница.
Их ожидает масса светлых эмоций от этой замечательной игры,а красивые и модные ошейники лишь подчеркнут позитивное настроение от игры.
info [Профиль]  [ЛС] 

Bizzare Koshak

Пол: Пол:Муж

Стаж: 7 лет 10 месяцев

Сообщений: 659

Россия
Рейтинг

post 10-Дек-2017 07:23 (спустя 3 минуты) [-]-26[+]

[Цитировать] 

Я вот все думаю, что круче индийские боевики или японские "шедевры".

_________________
info [Профиль]  [ЛС] 

Doomartulokan

Пол: Пол:Муж

Стаж: 8 лет 11 месяцев

Сообщений: 1115

Предупреждений: 1

Россия
Рейтинг

post 10-Дек-2017 09:44 (спустя 2 часа 20 минут) [-]-19[+]

[Цитировать] 

Какая чушь. Как мне его рекламировали, говорили о, такой фильм... Я посмотрел, Боже какая фигня. Ох уж эти самураи...
info [Профиль]  [ЛС] 

dante3732

Пол: Пол:Муж

Стаж: 6 лет 8 месяцев

Сообщений: 191

Предупреждений: 1

Россия
Рейтинг

post 10-Дек-2017 10:28 (спустя 43 минуты) [-]6[+]

[Цитировать] 

Крутой фильм, думаю от него и пошли голодные игры, и тот же pubg...
info [Профиль]  [ЛС] 

Bizzare Koshak

Пол: Пол:Муж

Стаж: 7 лет 10 месяцев

Сообщений: 659

Россия
Рейтинг

post 10-Дек-2017 10:28 (спустя 7 секунд) [-]-16[+]

[Цитировать] 

Doomartulokan писал(а):

Какая чушь. Как мне его рекламировали, говорили о, такой фильм... Я посмотрел, Боже какая фигня. Ох уж эти самураи...
У косых иногда получается заделать не плохие аниме. Но когда они берутся за кино, хоть стой, хоть падай!

_________________
info [Профиль]  [ЛС] 

avalon943

Пол: Пол:Муж

Стаж: 7 лет 2 месяца

Сообщений: 126

Россия
Рейтинг

post 10-Дек-2017 12:34 (спустя 2 часа 6 минут) [-]5[+]

[Цитировать] 

фильм по книге
в книге всё разложено и расписано (ситуация и мотивация)
в фильме конспектом / книга толстая/ многое не вошло.
жанр не всем интересен (олд соц. фантастика). Мне в свое время весьма зашло.
info [Профиль]  [ЛС] 

|m|e|s|s|e|r|

Пол: Пол:Муж

Стаж: 6 лет 5 месяцев

Сообщений: 184

Кокосовые острова
Рейтинг

post 10-Дек-2017 13:55 (спустя 1 час 20 минут) [-]-4[+]

[Цитировать] 

сейчас уже что то совсем не то (наверное зажрался), но вот посмотрев когда он вышел подумал ай да писяглазые ай да молодцы..

_________________
больше минусов - это актуально.
info [Профиль]  [ЛС] 

dante3732

Пол: Пол:Муж

Стаж: 6 лет 8 месяцев

Сообщений: 191

Предупреждений: 1

Россия
Рейтинг

post 10-Дек-2017 14:17 (спустя 22 минуты) [-]0[+]

[Цитировать] 

|m|e|s|s|e|r|
А я смотрел фильм в этом году впервый раз и был в восторге от него!
info [Профиль]  [ЛС] 

Doomartulokan

Пол: Пол:Муж

Стаж: 8 лет 11 месяцев

Сообщений: 1115

Предупреждений: 1

Россия
Рейтинг

post 10-Дек-2017 15:54 (спустя 1 час 37 минут) [-]-1[+]

[Цитировать] 

Bizzare Koshak писал(а):

Doomartulokan писал(а):

Какая чушь. Как мне его рекламировали, говорили о, такой фильм... Я посмотрел, Боже какая фигня. Ох уж эти самураи...
У косых иногда получается заделать не плохие аниме. Но когда они берутся за кино, хоть стой, хоть падай!
Я о том же. Им очень и очень трудно дается кинематограф. То ли они действительно играть не умеют, то ли просто кривляются на камеру.
Да и сам фильм. По сюжету - страшный кризис в стране, полный капец всему.... Но японцы есть ходят в РЕСТОРАНЫ !!! kolob_107 Вот бы нам такой кризис что бы мы при нем в ресторанах ели..
info [Профиль]  [ЛС] 

Снежный барс

Пол: Пол:Муж

Стаж: 9 лет 5 месяцев

Сообщений: 401

Непал
Рейтинг

post 10-Дек-2017 16:44 (спустя 49 минут) [-]2[+]

[Цитировать] 

Bizzare Koshak писал(а):

У косых иногда получается заделать не плохие аниме. Но когда они берутся за кино, хоть стой, хоть падай!
Куросава и Китано смотрят на тебя с недоумением. Несмотря на то, что первый уже умер.
info [Профиль]  [ЛС] 

CoolDR

Стаж: 6 лет 11 месяцев

Сообщений: 34

Рейтинг

post 10-Дек-2017 16:47 (спустя 2 минуты) [-]-1[+]

[Цитировать] 

Великолепный фильм!
Жаль, что вторая часть шлаком оказалась Грущу
info [Профиль]  [ЛС] 

Gokudo

Пол: Пол:Муж

Стаж: 8 лет 4 месяца

Сообщений: 104

Рейтинг

post 10-Дек-2017 18:32 (спустя 1 час 45 минут) [-]0[+]

[Цитировать] 

Кому вкатило - попробуйте мангу почитать. Там все намного лучше (и жестче)
info [Профиль]  [ЛС] 

hudson

Пол: Пол:Муж

Стаж: 9 лет 5 месяцев

Сообщений: 364

Исландия
Рейтинг

post 10-Дек-2017 23:54 (спустя 5 часов) [-]0[+]

[Цитировать] 

После Кикуджиро второй любимый фильм с Такеши Китано. Спасибо!
info [Профиль]  [ЛС] 

Bizzare Koshak

Пол: Пол:Муж

Стаж: 7 лет 10 месяцев

Сообщений: 659

Россия
Рейтинг

post 11-Дек-2017 13:42 (спустя 13 часов) [-]-3[+]

[Цитировать] 

Doomartulokan писал(а):

Bizzare Koshak писал(а):

Doomartulokan писал(а):

Какая чушь. Как мне его рекламировали, говорили о, такой фильм... Я посмотрел, Боже какая фигня. Ох уж эти самураи...
У косых иногда получается заделать не плохие аниме. Но когда они берутся за кино, хоть стой, хоть падай!
Я о том же. Им очень и очень трудно дается кинематограф. То ли они действительно играть не умеют, то ли просто кривляются на камеру.
Да и сам фильм. По сюжету - страшный кризис в стране, полный капец всему.... Но японцы есть ходят в РЕСТОРАНЫ !!! kolob_107 Вот бы нам такой кризис что бы мы при нем в ресторанах ели..
Особенно когда они начинают экранизировать свои аниме, вроде тетради смерти или атаки титанов это просто словами не описать, индусы нервно курят в сторонке.

_________________
info [Профиль]  [ЛС] 
Показать сообщения:    
Ответить на тему

Текущее время: 23-Сен 19:13

Часовой пояс: GMT + 4



Вы не можете начинать темы
Вы не можете отвечать на сообщения
Вы не можете редактировать свои сообщения
Вы не можете удалять свои сообщения
Вы не можете голосовать в опросах
Вы не можете прикреплять файлы к сообщениям
Вы не можете скачивать файлы