Ошибка

Дюймовочка / Thumbelina (Дон Блут, Гари Голдман) [1994, мультфильм, фэнтези, семейный, BDRip]

Ответить на тему
 
Автор Сообщение

Aleksey Nik

Пол: Пол:Муж

Стаж: 6 лет 1 месяц

Сообщений: 60

Россия
Рейтинг

post 25-Ноя-2017 23:10 1[+]

[Цитировать] 

Название: Дюймовочка
Название: Thumbelina
Год выхода: 1997
Жанр: мультфильм, фэнтези, семейный
Режиссер: Дон Блут, Гари Голдман
Роли озвучивали: Джоди Бенсон, Джино Конфорти, Барбара Кук, Уилл Райан, Джун Форэй, Кеннет Марс, Гари Имхофф, Джо Линч, Чаро, Дэнни Манн
Описание:
Волшебная история Ганса Христиана Андерсена «Дюймовочка», в версии известного мультипликатора Дона Блата, и композитора награжденного «Эмми» Барри Мэнилоу, которая напомнит вам, что если мы будем прислушиваться к своему сердцу, то все станет возможным.
Когда Дюймовочка встречает принца Корнелиуса, она уверена, что она нашла настоящую любовь. Но прежде, чем они будут вместе, Дюймовочка будет похищена семейством жаб, задержана коварным жуком и чуть не выйдет замуж за крота.

Выпущено: США, Ирландия
Продолжительность: 01:26:32
Перевод: Профессиональный (полное дублирование)
Формат: AVI
Качество: BDRip
Видео: 704x384 (1.83:1), 23.976 fps, XviD build 65 ~1816 kbps avg, 0.28 bit/pixel
Аудио: 48 kHz, AC3 Dolby Digital, 2/0 (L,R), ~192.00 kbps avg
General
Complete name : J:\Мультфильмы\Дюймовочка (1994) BDRip.avi
Format : AVI
Format/Info : Audio Video Interleave
Format profile : OpenDML
File size : 1.22 GiB
Duration : 1h 26mn
Overall bit rate : 2 021 Kbps

Video
ID : 0
Format : MPEG-4 Visual
Format profile : Advanced Simple@L5
Format settings, BVOP : 1
Format settings, QPel : No
Format settings, GMC : No warppoints
Format settings, Matrix : Custom
Codec ID : XVID
Codec ID/Hint : XviD
Duration : 1h 26mn
Bit rate : 1 816 Kbps
Width : 704 pixels
Height : 384 pixels
Display aspect ratio : 1.85:1
Frame rate : 23.976 fps
Color space : YUV
Chroma subsampling : 4:2:0
Bit depth : 8 bits
Scan type : Progressive
Compression mode : Lossy
Bits/(Pixel*Frame) : 0.280
Stream size : 1.10 GiB (90%)
Writing library : XviD 65

Audio
ID : 1
Format : AC-3
Format/Info : Audio Coding 3
Mode extension : CM (complete main)
Format settings, Endianness : Big
Codec ID : 2000
Duration : 1h 26mn
Bit rate mode : Constant
Bit rate : 192 Kbps
Channel(s) : 2 channels
Channel positions : Front: L R
Sampling rate : 48.0 KHz
Bit depth : 16 bits
Compression mode : Lossy
Stream size : 119 MiB (9%)
Alignment : Aligned on interleaves
Interleave, duration : 32 ms (0.77 video frame)
info [Профиль]  [ЛС] 
Показать сообщения:    
Ответить на тему

Текущее время: 12-Дек 20:00

Часовой пояс: GMT + 4



Вы не можете начинать темы
Вы не можете отвечать на сообщения
Вы не можете редактировать свои сообщения
Вы не можете удалять свои сообщения
Вы не можете голосовать в опросах
Вы не можете прикреплять файлы к сообщениям
Вы не можете скачивать файлы