Ошибка

Геркулес / Hercules (Рон Клементс, Джон Маскер) [1997, мультфильм, мюзикл, фэнтези, комедия, приключения, семейный, BDRip]

Ответить на тему
 
Автор Сообщение

Aleksey Nik

Пол: Пол:Муж

Стаж: 6 лет 1 месяц

Сообщений: 60

Россия
Рейтинг

post 25-Ноя-2017 19:56 0[+]

[Цитировать] 

Название: Геркулес
Название: Hercules
Год выхода: 1997
Жанр: мультфильм, мюзикл, фэнтези, комедия, приключения, семейный
Режиссер: Рон Клементс, Джон Маскер
Роли озвучивали: Тейт Донован, Джошуа Китон, Роджер Барт, Дэнни ДеВито, Джеймс Вудс, Сьюзэн Иган, Боб Голдтуэйт, Мэтт Фрюэр, Рип Торн, Саманта Эггар
Описание:
Аид - властитель загробного мира. Много лет назад он был фактически сослан своим старшим братом Зевсом в глубины Ада и теперь намерен наверстать упущенное, собрав армию монстров и захватив Олимп. Единственный, кто может помешать Аиду - сын Зевса, юный Геркулес, поэтому прислужники злодея похищают младенца и превращают его в простого смертного.Спустя много лет юноша узнает о своем происхождении и ставит целью вернуться домой, но для этого ему придется совершить немало подвигов и стать настоящим героем. Но, как выясняется, даже победы над силами зла недостаточно, чтобы вернуть божественное начало...
Выпущено: США
Продолжительность: 01:33:12
Перевод: Профессиональный (полное дублирование)
Формат: AVI
Качество: BDRip
Видео: 720x400 (1.80:1), 23,976 fps, XviD build 65 ~1838 kbps avg, 0.27 bit/pixel
Аудио: 48 kHz, AC3 Dolby Digital, 3/2 (L,C,R,l,r) + LFE ch, ~384.00 kbps avg
General
Complete name : J:\Мультфильмы\Геркулес (1997) BDRip.avi
Format : AVI
Format/Info : Audio Video Interleave
File size : 1.45 GiB
Duration : 1h 33mn
Overall bit rate : 2 231 Kbps
Movie name : Геркулес / Hercules (1997) BDRip
Writing application : VirtualDubMod 1.5.10.2 (build 2540/release)
Comment : 27.01.2014

Video
ID : 0
Format : MPEG-4 Visual
Format profile : Advanced Simple@L5
Format settings, BVOP : 1
Format settings, QPel : No
Format settings, GMC : No warppoints
Format settings, Matrix : Custom
Codec ID : XVID
Codec ID/Hint : XviD
Duration : 1h 33mn
Bit rate : 1 838 Kbps
Width : 720 pixels
Height : 400 pixels
Display aspect ratio : 16:9
Frame rate : 23.976 fps
Color space : YUV
Chroma subsampling : 4:2:0
Bit depth : 8 bits
Scan type : Progressive
Compression mode : Lossy
Bits/(Pixel*Frame) : 0.266
Stream size : 1.20 GiB (82%)
Writing library : XviD 65

Audio
ID : 1
Format : AC-3
Format/Info : Audio Coding 3
Mode extension : CM (complete main)
Format settings, Endianness : Big
Codec ID : 2000
Duration : 1h 33mn
Bit rate mode : Constant
Bit rate : 384 Kbps
Channel(s) : 6 channels
Channel positions : Front: L C R, Side: L R, LFE
Sampling rate : 48.0 KHz
Bit depth : 16 bits
Compression mode : Lossy
Stream size : 256 MiB (17%)
Alignment : Split accross interleaves
Interleave, duration : 42 ms (1.00 video frame)
Interleave, preload duration : 500 ms
info [Профиль]  [ЛС] 

SkyJoker

Пол: Пол:Муж

Стаж: 4 года 7 месяцев

Сообщений: 240

Рейтинг

post 26-Ноя-2017 01:30 (спустя 5 часов) [-]1[+]

[Цитировать] 

Ох, мультик детства. Такие старенькие мультики все в низком разрешении? Я просто не очень знаю когда fullhd делаться начал в кинематографе

_________________
Intel Core i7-6700k 4.6 GHz
NVidia Geforce GTX 1070
16GB RAM DDR4 2400
info [Профиль]  [ЛС] 

Skay

Пол: Пол:Муж

Стаж: 6 лет 4 месяца

Сообщений: 353

Рейтинг

post 27-Ноя-2017 07:39 (спустя 1 день 6 часов) [-]0[+]

[Цитировать] 

Без озвучки Антонов не тру
https://youtu.be/jxZTw7p5tEE?t=90

_________________
info [Профиль]  [ЛС] 
Показать сообщения:    
Ответить на тему

Текущее время: 11-Дек 19:27

Часовой пояс: GMT + 4



Вы не можете начинать темы
Вы не можете отвечать на сообщения
Вы не можете редактировать свои сообщения
Вы не можете удалять свои сообщения
Вы не можете голосовать в опросах
Вы не можете прикреплять файлы к сообщениям
Вы не можете скачивать файлы