Ошибка

Книга джунглей / The Jungle Book (Вольфганг Райтерман) [1967, мультфильм, мюзикл, приключения, семейный, BDRip 720р]

Ответить на тему
 
Автор Сообщение

Aleksey Nik

Пол: Пол:Муж

Стаж: 6 лет 2 месяца

Сообщений: 66

Россия
Рейтинг

post 24-Ноя-2017 23:58 0[+]

[Цитировать] 

Название: Книга джунглей
Название: The Jungle Book
Год выхода: 1967
Жанр: мультфильм, мюзикл, приключения, семейный
Режиссер: Вольфганг Райтерман
Роли озвучивали: Фил Харрис, Себастьян Кабот, Брюс Рейтерман, Джордж Сэндерс, Стерлинг Холлоуэй, Луи Прима, Дж. Пэт О’Мэлли, Верна Фелтон, Клинт Ховард, Чад Стюарт
Описание:
Выращенный волками человеческий детеныш Маугли по решению стаи должен вернуться к людям, чтобы не попасть в лапы к тигру-людоеду Шер Хану. Вместе с пантерой Багирой Маугли отправляется в путь, навстречу неожиданным знакомствам и опасным приключениям.
Он подружится с беспечным медведем Балу, будет похищен обезьянами, станет пленником коварного удава Каа, и еще много чего случится со смелым мальчиком, который по словам самого Киплинга «любит дергать смерть за усы».

Выпущено: США
Продолжительность: 01:18:27
Перевод: Профессиональный (полное дублирование), Blu-ray EUR
Формат: MKV
Качество: BDRip 720p
Видео: 1256x720, 23.976 fps, x264@L4.1, ~8753 kbps avg
Аудио: 48 kHz, AC3, 3/2 (L,C,R,l,r) + LFE ch, ~640.00 kbps avg
Субтитры: Russian
General
Unique ID : 218166755498251830237027085738852578536 (0xA4216383B4269140AB474F9EB01D74E8)
Complete name : J:\Мультфильмы\Книга Джунглей (1967) BDRip 720p.mkv
Format : Matroska
Format version : Version 4 / Version 2
File size : 5.25 GiB
Duration : 1h 18mn
Overall bit rate : 9 584 Kbps
Movie name : The Jungle Book (1967) - Release for HDCLUB
Encoded date : UTC 2016-07-24 09:12:51
Writing application : mkvmerge v9.1.0 ('Little Earthquakes') 64bit
Writing library : libebml v1.3.3 + libmatroska v1.4.4
DURATION : 01:17:54.675000000
NUMBER_OF_FRAMES : 1100
NUMBER_OF_BYTES : 56694
_STATISTICS_WRITING_APP : mkvmerge v9.1.0 ('Little Earthquakes') 64bit
_STATISTICS_WRITING_DATE_UTC : 2016-07-24 09:12:51
_STATISTICS_TAGS : BPS DURATION NUMBER_OF_FRAMES NUMBER_OF_BYTES

Video
ID : 1
Format : AVC
Format/Info : Advanced Video Codec
Format profile : High@L4.1
Format settings, CABAC : Yes
Format settings, ReFrames : 9 frames
Codec ID : V_MPEG4/ISO/AVC
Duration : 1h 18mn
Bit rate : 8 753 Kbps
Width : 1 256 pixels
Height : 720 pixels
Display aspect ratio : 16:9
Frame rate mode : Constant
Frame rate : 23.976 fps
Color space : YUV
Chroma subsampling : 4:2:0
Bit depth : 8 bits
Scan type : Progressive
Bits/(Pixel*Frame) : 0.404
Stream size : 4.80 GiB (91%)
Writing library : x264 core 142 r2431+42 c69a006 tMod [8-bit@all X86_64]
Encoding settings : cabac=1 / ref=9 / deblock=1:-2:-2 / analyse=0x3:0x133 / me=tesa / subme=10 / psy=1 / fade_compensate=0.00 / psy_rd=0.70:0.00 / mixed_ref=1 / me_range=24 / chroma_me=1 / trellis=2 / 8x8dct=1 / cqm=0 / deadzone=21,11 / fast_pskip=0 / chroma_qp_offset=-3 / threads=12 / lookahead_threads=2 / sliced_threads=0 / nr=0 / decimate=0 / interlaced=0 / bluray_compat=0 / constrained_intra=0 / fgo=0 / bframes=8 / b_pyramid=2 / b_adapt=2 / b_bias=0 / direct=3 / weightb=1 / open_gop=0 / weightp=2 / keyint=250 / keyint_min=23 / scenecut=40 / intra_refresh=0 / rc_lookahead=60 / rc=crf / mbtree=0 / crf=13.0000 / qcomp=0.65 / qpmin=0:0:0 / qpmax=69:69:69 / qpstep=4 / vbv_maxrate=62500 / vbv_bufsize=78125 / crf_max=0.0 / nal_hrd=none / filler=0 / ip_ratio=1.40 / pb_ratio=1.30 / aq=4:1.00 / aq-sensitivity=10.00 / aq-factor=1.00:1.00:1.00 / aq2=1:0.60 / aq2-sensitivity=15.00 / aq2-factor=1.00:1.00:1.00 / aq3=0
Language : English
Default : Yes
Forced : No

Audio
ID : 2
Format : AC-3
Format/Info : Audio Coding 3
Mode extension : CM (complete main)
Format settings, Endianness : Big
Codec ID : A_AC3
Duration : 1h 18mn
Bit rate mode : Constant
Bit rate : 640 Kbps
Channel(s) : 6 channels
Channel positions : Front: L C R, Side: L R, LFE
Sampling rate : 48.0 KHz
Bit depth : 16 bits
Compression mode : Lossy
Stream size : 359 MiB (7%)
Title : Дубляж, Blu-ray EUR
Language : Russian
Default : Yes
Forced : No

Text
ID : 3
Format : UTF-8
Codec ID : S_TEXT/UTF8
Codec ID/Info : UTF-8 Plain Text
Language : Russian
Default : No
Forced : No

Menu
00:00:00.000 : en:Opening Credits
00:02:30.317 : en:The Man-Cub
00:04:31.938 : en:Adopted by Wolves
00:06:07.200 : en:The Wolf Pack Elders
00:09:42.040 : en:Kaa Drops in for a S-s-snack
00:13:04.701 : en:"Colonel Hathi's March"
00:14:57.563 : en:Inspection
00:21:05.973 : en:Mowgli Meets Baloo
00:24:15.663 : en:Baloo and Mowgli
00:25:14.638 : en:"The Bare Necessitites"
00:29:44.533 : en:Mowgli Is Kidnapped
00:33:46.900 : en:"I Wan'na Be Like You"
00:39:14.978 : en:Settling Down for the Night
00:43:47.500 : en:A Long Walk
00:47:12.621 : en:Shere Khan, the Hunter
00:52:51.043 : en:Mowgli on His Own
00:55:15.729 : en:"Trust in Me"
01:01:04.661 : en:The Vultures
01:04:20.231 : en:"That's What Friends Are For"
01:06:49.881 : en:Mowgli Confronts Shere Khan
01:07:39.639 : en:A Tiger By the Tail
01:10:15.795 : en:A Dark Moment
01:13:24.400 : en:"My Own Home"
01:16:52.358 : en:Happy Endings for All
info [Профиль]  [ЛС] 

_Cezar_

Пол: Пол:Муж

Стаж: 5 лет 6 месяцев

Сообщений: 49

Украина
Рейтинг

post 25-Ноя-2017 16:00 (спустя 16 часов) [-]7[+]

[Цитировать] 

Блин, мультик - ровесник моих родителей, но как же он красив.

_________________
Конфиг 1: i7-7700K, 1070 8Gb, 16GB DDR4-3200, SSD Kingstone 256Gb, HDD 3TB Toshiba
Конфиг 2: i7-6700HQ, 970m 3Gb, 16GB DDR4-2133, SSD Transcend 128Gb, HDD 1TB Hitachi
info [Профиль]  [ЛС] 
Показать сообщения:    
Ответить на тему

Текущее время: 16-Янв 21:36

Часовой пояс: GMT + 4



Вы не можете начинать темы
Вы не можете отвечать на сообщения
Вы не можете редактировать свои сообщения
Вы не можете удалять свои сообщения
Вы не можете голосовать в опросах
Вы не можете прикреплять файлы к сообщениям
Вы не можете скачивать файлы