Ошибка

Земля до начала времен / The Land Before Time (Дон Блут) [1988, мультфильм, фэнтези, приключения, семейный, BDRip]

Ответить на тему
 
Автор Сообщение

Aleksey Nik

Пол: Пол:Муж

Стаж: 6 лет 1 месяц

Сообщений: 60

Россия
Рейтинг

post 19-Ноя-2017 12:18 2[+]

[Цитировать] 

Название: Земля до начала времен
Название: The Land Before Time
Год выхода: 1988
Жанр: мультфильм, фэнтези, приключения, семейный
Режиссер: Дон Блут
Роли озвучивали: Джудит Барси, Пэт Хингл, Гэбриел Дэймон, Хелен Шейвер, Билл Эрвин, Бёрк Бирнс, Кендес Хатсон, Уилл Райан, Дайана Росс, Фрэнк Уэлкер
Описание:
Было время, когда нога человека еще не ступала на Землю. То было время извергающихся вулканов, громадных землетрясений и ужасных катаклизмов. Наша планета тогда была населена удивительными и странными существами.
Герой этого мультика, очаровательный бронтозаврик Крошки-Ножки, отправился на поиски легендарной Великой Долины, где по слухам можно неплохо подкрепиться. По пути он прихватил с собой в путешествие еще четырех малышей-динозавриков. В дороге эту пеструю компанию поджидают удивительные и опасные приключения.

Выпущено: США, Ирландия
Продолжительность: 01:08:49
Перевод: Профессиональный (полное дублирование)
Формат: AVI
Качество: BDRip
Видео: 704x384 (1.83:1), 23,976 fps, XviD build 66 ~2172 kbps avg, 0.34 bit/pixel
Аудио: 48 kHz, AC3 Dolby Digital, 2/0 (L,R), ~192.00 kbps avg
General
Complete name : J:\Мультфильмы\Земля до начала времен (1988) BDRip.avi
Format : AVI
Format/Info : Audio Video Interleave
Format profile : OpenDML
File size : 1.14 GiB
Duration : 1h 8mn
Overall bit rate : 2 377 Kbps

Video
ID : 0
Format : MPEG-4 Visual
Format profile : Advanced Simple@L5
Format settings, BVOP : 1
Format settings, QPel : No
Format settings, GMC : No warppoints
Format settings, Matrix : Custom
Codec ID : XVID
Codec ID/Hint : XviD
Duration : 1h 8mn
Bit rate : 2 172 Kbps
Width : 704 pixels
Height : 384 pixels
Display aspect ratio : 1.85:1
Frame rate : 23.976 fps
Color space : YUV
Chroma subsampling : 4:2:0
Bit depth : 8 bits
Scan type : Progressive
Compression mode : Lossy
Bits/(Pixel*Frame) : 0.335
Stream size : 1.04 GiB (91%)
Writing library : XviD 66

Audio
ID : 1
Format : AC-3
Format/Info : Audio Coding 3
Mode extension : CM (complete main)
Format settings, Endianness : Big
Codec ID : 2000
Duration : 1h 8mn
Bit rate mode : Constant
Bit rate : 192 Kbps
Channel(s) : 2 channels
Channel positions : Front: L R
Sampling rate : 48.0 KHz
Bit depth : 16 bits
Compression mode : Lossy
Stream size : 94.5 MiB (8%)
Alignment : Aligned on interleaves
Interleave, duration : 32 ms (0.77 video frame)
info [Профиль]  [ЛС] 

Victorique

Стаж: 4 года 9 месяцев

Сообщений: 80

Рейтинг

post 19-Ноя-2017 20:32 (спустя 8 часов) [-]15[+]

[Цитировать] 

О господи, это один из главных полнометражных мультфильмов моего детства. Сотню раз пересматривал, наверное.
info [Профиль]  [ЛС] 

Сумраk

Пол: Пол:Муж

Стаж: 3 года

Сообщений: 26

Куба
Рейтинг

post 19-Ноя-2017 20:49 (спустя 17 минут) [-]14[+]

[Цитировать] 

Мультик детства..)
info [Профиль]  [ЛС] 

KoMyNiZT

Пол: Пол:Муж

Стаж: 8 лет 2 месяца

Сообщений: 39

Россия
Рейтинг

post 19-Ноя-2017 21:24 (спустя 34 минуты) [-]11[+]

[Цитировать] 

Шикардос) прям ностальгия по детству ударила!
info [Профиль]  [ЛС] 

EnergyCatBoris

Стаж: 10 месяцев 20 дней

Сообщений: 86

Рейтинг

post 19-Ноя-2017 23:23 (спустя 1 час 59 минут) [-]3[+]

[Цитировать] 

Понимаю,что громко скажу, но это до сих пор лучший мультик про динозавров! Улыбаюсь Шедевр оставшийся в сердце до конца....
info [Профиль]  [ЛС] 

scandall

Пол: Пол:Муж

Стаж: 8 лет 2 месяца

Сообщений: 3089

Предупреждений: 4

Россия
Рейтинг

post 19-Ноя-2017 23:33 (спустя 9 минут) [-]2[+]

[Цитировать] 

И песен собачьих там не было, кажется, которые перематывать приходилось.

_________________
Где твои симптомы ?
info [Профиль]  [ЛС] 

Galeona

Стаж: 7 лет 8 месяцев

Сообщений: 17

Россия
Рейтинг

post 20-Ноя-2017 03:13 (спустя 3 часа) [-]2[+]

[Цитировать] 

Ностальгия :-) Столько лет прошло, а до сих пор все имена помним Литл Фут, Сара, Питри, Даки, Спайк
info [Профиль]  [ЛС] 

Neviqs

Пол: Пол:Муж

Стаж: 3 года 2 месяца

Сообщений: 4

Россия
Рейтинг

post 20-Ноя-2017 04:46 (спустя 1 час 33 минуты) [-]2[+]

[Цитировать] 

Еще это божественное музыкальное сопровождение, особенно во время титров, аж мурашки по коже.
info [Профиль]  [ЛС] 

forgivemen0tt

Стаж: 8 лет 2 месяца

Сообщений: 28

Россия
Рейтинг

post 21-Ноя-2017 12:57 (спустя 1 день 8 часов) [-]0[+]

[Цитировать] 

Почему то в памяти он у меня остался под названием "Маленькие ножки", то ли на пиратской кассете такой перевод названия был, то ли мне родители так перевели имя главного героя, но "Земля до начала времен" у меня напрочь была выбита из памяти этими самыми "Маленькими ножками". Помню он у меня был с одноголосным переводом вместе с другим мультфильмом Блута "Секрет крыс". Один из самых любимых мультиков детства.
info [Профиль]  [ЛС] 
Показать сообщения:    
Ответить на тему

Текущее время: 11-Дек 19:28

Часовой пояс: GMT + 4



Вы не можете начинать темы
Вы не можете отвечать на сообщения
Вы не можете редактировать свои сообщения
Вы не можете удалять свои сообщения
Вы не можете голосовать в опросах
Вы не можете прикреплять файлы к сообщениям
Вы не можете скачивать файлы