Ошибка

Код: Осознание - Страж перерождения / Code: Realize - Sousei no Himegimi [TV] [1-2 из 12] [2017] [приключения, романтика] [WEBRip] [720p] [Профессиональный] MVO Kansai

Ответить на тему
 
Автор Сообщение

NovA_JKE

Пол: Пол:Жен

Стаж: 7 лет 8 месяцев

Сообщений: 653

Антарктида
Рейтинг

post 04-Ноя-2017 11:06 0[+]

[Цитировать] 

pic="https://image.ibb.co/iwRQvw/code_260.png"


Код: Осознание - Страж перерождения | Code: Realize - Sousei no Himegimi

Год выпуска: 2017
Страна: Япония
Жанр: приключения, романтика
Тип: TV
Продолжительность: 12 эп. x 25 мин.
Студия:
Режиссер: Ямамото Хидэё
Сценарий: Харада Саяка
Релиз: студия Kansai
Перевод: студия Kansai
Озвучивание: многоголосое закадровое


Описание: Кардия - девушка с трагической судьбой. Она страдает от таинственной болезни, заставляющей рассыпаться пеплом всё, к чему она прикасается. Поэтому отец наказал ей не покидать особняка, и, хотя с его исчезновения прошли годы, Кардия не смеет ослушаться. Жизнь бедняжки так и прошла бы одиноко в четырёх стенах, но однажды в дом врывается королевская гвардия и пытается увести Кардию силой. Помешать негодяям удаётся лишь загадочному вору, скрытому под маской. Теперь судьба Кардии зависит от него...
Дополнительная информация:


Качество: WEBRip
Формат: mkv
Видео: h.264; 8 bit; 1280x720; 23,976 fps; ~1776 kbps
Аудио:
  1. RU: AAC-LC 2.0, 48 kHz, ~256 kbps
Субтитры: нет
  1. London Steam.
  2. The Strongest Stalker.

Код:

Общее
Уникальный идентификатор                 : 218415267929860199633472362698804324529 (0xA451401F92636BB8B11DF9DDAC0468B1)
Полное имя                               : P:\NovA_JKE\Аниме\!DL Code Realize - Sousei no Himegimi (Код Осознание) [WEBRip 720p, Студия KANSAI]\[KANSAI] Code Realize - Sousei no Himegimi - 01 [720p].mkv
Формат                                   : Matroska
Версия формата                           : Version 4 / Version 2
Размер файла                             : 344 Мбайт
Продолжительность                        : 23 м. 40 с.
Общий поток                              : 2033 Кбит/сек
Дата кодирования                         : UTC 2017-10-13 22:44:46
Программа кодирования                    : mkvmerge v12.0.0 ('Trust / Lust') 64bit
Библиотека кодирования                   : libebml v1.3.4 + libmatroska v1.4.5

Видео
Идентификатор                            : 1
Формат                                   : AVC
Формат/Информация                        : Advanced Video Codec
Профиль формата                          : High@L4
Настройки формата                        : CABAC / 6 Ref Frames
Параметр CABAC формата                   : Да
Параметр RefFrames формата               : 6 кадров
Идентификатор кодека                     : V_MPEG4/ISO/AVC
Продолжительность                        : 23 м. 40 с.
Битрейт                                  : 1776 Кбит/сек
Ширина                                   : 1280 пикселей
Высота                                   : 720 пикселей
Соотношение сторон                       : 16:9
Режим частоты кадров                     : Переменный
Частота кадров                           : 23,976 (23976/1000) кадра/сек
Цветовое пространство                    : YUV
Субдискретизация насыщенности            : 4:2:0
Битовая глубина                          : 8 бит
Тип развёртки                            : Прогрессивная
Бит/(Пиксели*Кадры)                      : 0.080
Размер потока                            : 301 Мбайт (87%)
Заголовок                                : https://kansai.studio
Библиотека кодирования                   : x264 core 120 r2120 0c7dab9
Настройки программы                      : cabac=1 / ref=6 / deblock=1:1:1 / analyse=0x3:0x113 / me=umh / subme=8 / psy=1 / psy_rd=0.40:0.00 / mixed_ref=1 / me_range=16 / chroma_me=1 / trellis=1 / 8x8dct=1 / cqm=0 / deadzone=21,11 / fast_pskip=1 / chroma_qp_offset=-2 / threads=4 / sliced_threads=0 / nr=0 / decimate=1 / interlaced=0 / bluray_compat=0 / constrained_intra=0 / bframes=3 / b_pyramid=2 / b_adapt=2 / b_bias=0 / direct=3 / weightb=1 / open_gop=0 / weightp=2 / keyint=250 / keyint_min=23 / scenecut=40 / intra_refresh=0 / rc_lookahead=50 / rc=2pass / mbtree=1 / bitrate=1776 / ratetol=1.0 / qcomp=0.60 / qpmin=0 / qpmax=69 / qpstep=4 / cplxblur=20.0 / qblur=0.5 / vbv_maxrate=3552 / vbv_bufsize=8880 / nal_hrd=none / ip_ratio=1.40 / aq=1:0.60
Язык                                     : Japanese
Default                                  : Да
Forced                                   : Нет

Аудио
Идентификатор                            : 2
Формат                                   : AAC
Формат/Информация                        : Advanced Audio Codec
Профиль формата                          : LC
Идентификатор кодека                     : A_AAC-2
Продолжительность                        : 23 м. 40 с.
Битрейт                                  : 255 Кбит/сек
Каналы                                   : 2 канала
Расположение каналов                     : Front: L R
Частота                                  : 48,0 КГц
Частота кадров                           : 46,875 кадров/сек (1024 SPF)
Метод сжатия                             : С потерями
Размер потока                            : 43,1 Мбайт (13%)
Заголовок                                : KANSAI Studio
Язык                                     : Russian
Default                                  : Да
Forced                                   : Нет
info [Профиль]  [ЛС] 

HyperMax

Пол: Пол:Муж

Стаж: 7 лет 7 месяцев

Сообщений: 6

Украина
Рейтинг

post 05-Ноя-2017 04:52 (спустя 17 часов) [-]0[+]

[Цитировать] 

Приветствую! А это как-то связано с Code: Breaker?
info [Профиль]  [ЛС] 

NovA_JKE

Пол: Пол:Жен

Стаж: 7 лет 8 месяцев

Сообщений: 653

Антарктида
Рейтинг

post 05-Ноя-2017 18:19 (спустя 13 часов) [-]0[+]

[Цитировать] 

HyperMax писал(а):

Приветствую! А это как-то связано с Code: Breaker?
нет.
info [Профиль]  [ЛС] 
Показать сообщения:    
Ответить на тему

Текущее время: 17-Ноя 23:38

Часовой пояс: GMT + 4



Вы не можете начинать темы
Вы не можете отвечать на сообщения
Вы не можете редактировать свои сообщения
Вы не можете удалять свои сообщения
Вы не можете голосовать в опросах
Вы не можете прикреплять файлы к сообщениям
Вы не можете скачивать файлы