Ошибка

Библиотека Души / Kokoro Library / Kokoro Toshokan [TV+Special] [1-13+1 из 13+1] [комедия, повседневность, сказка, драма] [DVDRip, 720p] [Любительский, (JAP + SUB)]

Ответить на тему
 
Автор Сообщение

Nighteon

Пол: Пол:Муж

Стаж: 7 лет 5 месяцев

Сообщений: 83

Россия
Рейтинг

post 03-Ноя-2017 20:46 0[+]

[Цитировать] 

Библиотека Души / Kokoro Library / Kokoro Toshokan
Страна: Япония
Год выпуска: 2001
Жанр: комедия, повседневность, сказка, драма
Тип: TV
Продолжительность: 13 эп, ~25 мин. серия + спешел 7 мин.
Режиссер: Масунари Кодзи
Студия: Studio DEEN
Перевод на русский: Бегемот
Озвучка двухголосая: серии с 1-13 - ShinkaDan (Sempl): Azazel (муж.) & Chigusa (жен.) (двухголосая)
специальный эпизод - ShinkaDan (Sempl): Azazel (муж.) & Kesu (жен.) (двухголосая)
Работа со звуком: Виктор Нуштаев

Описание: Данный сериал рассказывает историю трёх сестёр и их библиотеке несущей то же имя, что и младшая из сестёр - Душа. Душа с детсва мечтала стать библиотекарем и вот настаёт тот торжественный день кгода её назначают на эту должность. Теперь наступает время добрых и весёлых историй на работе и в не её. Это добрая и милая сказка в которой нет место пошлостям, насилию и прочим гадостям, за то есть место доброте и взаимовыручке, здесь даже не знакомые люди с улицы не чураются помочь бедной девочке найти дом где живёт Ждана Звёздкина дабы Душа смогла вернуть книгу.
Данная история явно опредила своё время. Даже комментарии в разных раздачах говорят о том, что мало кому ещё ценны такие тонкие и изящные эмоции и чувства, о которых идёт там речь. А сюжеты просто набиты красотой, лёгкостью, нежностью - как раз тем, чего так мало в нашей жизни, хотя ещё со времён Достоевского так никто и опроверг его гипотезу о том, что как раз это мир и спасёт. Самая ближайшая к "Библиотеке" по сюжету вещь - Tiny snow fairy Sugar. Но если там был концепт и личная драма двух героинь, то здесь накал чувств имеет немного другой угол: утопия в реальности. Люди, живущие эмоциями, которые не парятся по поводу денег, для которых сменяющиеся радость и грусть - самые большие крайности, где каждый рад помочь первому встречному (особо порадовали добрые байкеры)... Попробуйте вспомнить сюжет Попотана - колесо сансары, карма и полная безвыходность того мира, как оказалось, имеет выход и в "Библиотеке Кокоро" этот самый выход показан сочно и подробно.
Если вы ищите очередную грязь то не качайте, это не ваш сериал или не под текущее настроение, он для тех кто желает просто отдохнуть от грязи из реальной жизни. Так же наша команда надеяться, что вы воспитаные и культурные люди, а потому не будете изливать ваше негодование на в виде "какая гадость эта ваша заливная рыба" и не станете лить грязь в комментариях.

Доп. информация: Про бытовые плееры, лично мои смарт приставки на андройде спокойно жрут 10 бит и просят ещё.

Качество: DVDRip
Тип релиза: Без хардсаба
Формат видео: MP4
Серии с 1 по 13:
Релиз/Автор рипа: ZaZa-Raws@shyhen
Видео: H.264, 10 bit, 960x720, 2673 Kbps, 23.976 fps
Аудио: AAC, 512 Kbps, 48.0 KHz, 2 ch Язык Русский (в составе контейнера) ; Озвучка: двухголосая: Азазель (муж.) и Чигуса (жен.)
Аудио 2: AAC, 512 Kbps, 48.0 KHz, 2 ch Язык Японский
Субтитры: ASS - внешние, надписи Язык субтитров русский ; Перевод: Бегемот
Субтитры 2: ASS - внешние, полные Язык субтитров русский ; Перевод 2: Бегемот
Специальный эпизод:
Релиз/Автор рипа: ZaZa-Raws@shyhen
Видео: H.264, 10 bit, 800x448, 1235 Kbps, 23.976 fps
Аудио: AAC, 192 Kbps, 48.0 KHz, 2 ch Язык Русский (в составе контейнера) ; Озвучка: двухголосая: Азазель (муж.) и Кэсу (жен.)
Аудио 2: AAC, 192 Kbps, 48.0 KHz, 2 ch Язык Японский
Субтитры: ASS - внешние, надписи Язык субтитров русский ; Перевод: Бегемот
Субтитры 2: ASS - внешние, полные Язык субтитров русский ; Перевод 2: Бегемот
 
Общее
Полное имя : O:\Downloads\[ShinkaDan] Kokoro Library [Azazel & Chigusa]\[ShinkaDan] Kokoro Library - 01 [DVDrip 960x720 H264 AAC] [Azazel & Chigusa].mp4
Формат : MPEG-4
Профиль формата : Base Media
Идентификатор кодека : isom
Размер файла : 645 Мбайт
Продолжительность : 24 м.
Режим общего битрейта : Переменный
Общий поток : 3702 Кбит/сек
Дата кодирования : UTC 2017-09-14 02:13:50
Дата пометки : UTC 2017-09-14 02:13:50

Видео
Идентификатор : 1
Формат : AVC
Формат/Информация : Advanced Video Codec
Профиль формата : High 10@L3.1
Параметр CABAC формата : Да
Параметр ReFrames формата : 6 кадров
Идентификатор кодека : avc1
Идентификатор кодека/Информация : Advanced Video Coding
Продолжительность : 24 м.
Битрейт : 2673 Кбит/сек
Максимальный битрейт : 7395 Кбит/сек
Ширина : 960 пикселей
Высота : 720 пикселей
Соотношение сторон : 4:3
Режим частоты кадров : Постоянный
Частота кадров : 23,976 кадра/сек
Цветовое пространство : YUV
Субдискретизация насыщенности : 4:2:0
Битовая глубина : 10 бит
Тип развёртки : Прогрессивная
Бит/(Пиксели*Кадры) : 0.161
Размер потока : 466 Мбайт (72%)
Библиотека кодирования : x264 core 125 r2208+677+32 26f090e tMod [10-bit@all X86_64]
Настройки программы : cabac=1 / ref=6 / deblock=1:-1:-1 / analyse=0x3:0x131 / me=tesa / subme=10 / psy=1 / fade_compensate=0.00 / psy_rd=0.60:0.10 / mixed_ref=1 / me_range=64 / chroma_me=1 / trellis=2 / 8x8dct=1 / cqm=0 / deadzone=21,11 / fast_pskip=1 / chroma_qp_offset=-3 / threads=12 / lookahead_threads=2 / sliced_threads=0 / nr=0 / decimate=1 / interlaced=0 / bluray_compat=0 / constrained_intra=0 / fgo=0 / bframes=10 / b_pyramid=0 / b_adapt=2 / b_bias=0 / direct=3 / weightb=1 / open_gop=0 / weightp=2 / keyint=250 / keyint_min=23 / scenecut=40 / intra_refresh=0 / rc=crf / mbtree=0 / crf=17.2333 / qcomp=0.60 / qpmin=0 / qpmax=69 / qpstep=4 / ip_ratio=1.40 / pb_ratio=1.30 / aq=1:1.10
Язык : Japanese
Дата кодирования : UTC 2017-09-10 12:13:00
Дата пометки : UTC 2017-09-14 02:16:48

Аудио #1
Идентификатор : 2
Формат : AAC
Формат/Информация : Advanced Audio Codec
Профиль формата : LC
Идентификатор кодека : 40
Продолжительность : 24 м.
Вид битрейта : Переменный
Битрейт : 512 Кбит/сек
Максимальный битрейт : 524 Кбит/сек
Каналы : 2 канала
Расположение каналов : Front: L R
Частота : 48,0 КГц
Метод сжатия : С потерями
Размер потока : 89,3 Мбайт (14%)
Заголовок : Azazel and Chigusa from ShinkaDan
Язык : Russian
Дата кодирования : UTC 2017-09-13 11:51:07
Дата пометки : UTC 2017-09-14 02:16:48

Аудио #2
Идентификатор : 3
Формат : AAC
Формат/Информация : Advanced Audio Codec
Профиль формата : LC
Идентификатор кодека : 40
Продолжительность : 24 м.
Вид битрейта : Переменный
Битрейт : 512 Кбит/сек
Максимальный битрейт : 524 Кбит/сек
Каналы : 2 канала
Расположение каналов : Front: L R
Частота : 48,0 КГц
Метод сжатия : С потерями
Размер потока : 89,3 Мбайт (14%)
Заголовок : Original
Язык : Japanese
Дата кодирования : UTC 2017-09-14 00:43:16
Дата пометки : UTC 2017-09-14 02:16:48

 
Общее
Полное имя : O:\Downloads\[ShinkaDan] Kokoro Library [Azazel & Chigusa]\[ShinkaDan] Kokoro Library - SP [DVDrip 960x720 H264 AAC] [Azazel & Chigusa].mp4
Формат : MPEG-4
Профиль формата : Base Media
Идентификатор кодека : isom
Размер файла : 62,0 Мбайт
Продолжительность : 5 м. 20 с.
Режим общего битрейта : Переменный
Общий поток : 1624 Кбит/сек
Дата кодирования : UTC 2017-11-02 14:32:31
Дата пометки : UTC 2017-11-02 14:32:31

Видео
Идентификатор : 1
Формат : AVC
Формат/Информация : Advanced Video Codec
Профиль формата : High 10@L3.1
Параметр CABAC формата : Да
Параметр ReFrames формата : 6 кадров
Идентификатор кодека : avc1
Идентификатор кодека/Информация : Advanced Video Coding
Продолжительность : 5 м. 20 с.
Битрейт : 1235 Кбит/сек
Максимальный битрейт : 2471 Кбит/сек
Ширина : 800 пикселей
Высота : 448 пикселей
Соотношение сторон : 16:9
Режим частоты кадров : Постоянный
Частота кадров : 23,976 кадра/сек
Цветовое пространство : YUV
Субдискретизация насыщенности : 4:2:0
Битовая глубина : 10 бит
Тип развёртки : Прогрессивная
Бит/(Пиксели*Кадры) : 0.144
Размер потока : 47,2 Мбайт (76%)
Заголовок : rip by ShinkaDan
Библиотека кодирования : x264 core 125 r2200 999b753
Настройки программы : cabac=1 / ref=6 / deblock=1:1:1 / analyse=0x3:0x133 / me=umh / subme=9 / psy=1 / psy_rd=0.40:0.00 / mixed_ref=1 / me_range=32 / chroma_me=1 / trellis=2 / 8x8dct=1 / cqm=0 / deadzone=21,11 / fast_pskip=0 / chroma_qp_offset=-2 / threads=6 / lookahead_threads=1 / sliced_threads=0 / nr=0 / decimate=1 / interlaced=0 / bluray_compat=0 / constrained_intra=0 / bframes=5 / b_pyramid=2 / b_adapt=2 / b_bias=0 / direct=3 / weightb=1 / open_gop=0 / weightp=2 / keyint=250 / keyint_min=23 / scenecut=40 / intra_refresh=0 / rc=2pass / mbtree=0 / bitrate=1235 / ratetol=1.0 / qcomp=0.60 / qpmin=0 / qpmax=81 / qpstep=4 / cplxblur=20.0 / qblur=0.5 / ip_ratio=1.40 / pb_ratio=1.30 / aq=1:0.60
Язык : Japanese
Дата кодирования : UTC 2017-10-31 15:26:00
Дата пометки : UTC 2017-11-02 14:32:33

Аудио #1
Идентификатор : 2
Формат : AAC
Формат/Информация : Advanced Audio Codec
Профиль формата : LC
Идентификатор кодека : 40
Продолжительность : 5 м. 20 с.
Вид битрейта : Переменный
Битрейт : 192 Кбит/сек
Максимальный битрейт : 198 Кбит/сек
Каналы : 2 канала
Расположение каналов : Front: L R
Частота : 48,0 КГц
Метод сжатия : С потерями
Размер потока : 7,33 Мбайт (12%)
Заголовок : Azazel & Kesu
Язык : Russian
Дата кодирования : UTC 2017-11-02 14:30:06
Дата пометки : UTC 2017-11-02 14:32:33

Аудио #2
Идентификатор : 3
Формат : AAC
Формат/Информация : Advanced Audio Codec
Профиль формата : LC
Идентификатор кодека : 40
Продолжительность : 5 м. 20 с.
Вид битрейта : Переменный
Битрейт : 192 Кбит/сек
Максимальный битрейт : 199 Кбит/сек
Каналы : 2 канала
Расположение каналов : Front: L R
Частота : 48,0 КГц
Метод сжатия : С потерями
Размер потока : 7,33 Мбайт (12%)
Заголовок : Original
Дата кодирования : UTC 2017-11-02 14:30:06
Дата пометки : UTC 2017-11-02 14:32:33

01. С нынешнего дня с нами
02. То, что я могу прямо сейчас
03. Секрет госпожи Лесы
04. Девиз библиотекаря
05. Библиотека под колпаком
06. Компароид-библиотекарь
07. День без Души
08. Хочу к Маме!
09. Чудо
10. Библиотеки не станет
11. Дневник Джорджа
12. Душа, Надежда, Мира
13. Зима в библиотеке Души
SP. Kokoro Library - Communication Clips
info [Профиль]  [ЛС] 
Показать сообщения:    
Ответить на тему

Текущее время: 23-Ноя 13:09

Часовой пояс: GMT + 4



Вы не можете начинать темы
Вы не можете отвечать на сообщения
Вы не можете редактировать свои сообщения
Вы не можете удалять свои сообщения
Вы не можете голосовать в опросах
Вы не можете прикреплять файлы к сообщениям
Вы не можете скачивать файлы