Ошибка

Страна самоцветов / Houseki no Kuni [TV] [1-7 из 12] [2017] [экшен, фэнтези, сэйнен] [WEBRip] [1080p] [Субтитры (JAP)]

Ответить на тему
 
Автор Сообщение

anoningen

Стаж: 4 года 6 месяцев

Сообщений: 544

Самоа
Рейтинг

post 18-Окт-2017 22:17 0[+]

[Цитировать] 

Страна самоцветов
Houseki no Kuni | 宝石の国
Land of the Lustrous

Год выпуска: 2017.
Тип: TV
Жанр: экшен, фэнтези, сэйнен
Режиссер: Кёгоку Такахико
Автор оригинала: Итикава Харуко
Студия:
Продолжительность: 12 эп. по 24 мин
Русские субтитры: ASS, внешним файлом

Переводчик/Оформитель: Nika_Elrik [YakuSub Studio]
Редактор: Arashi-sama [YakuSub Studio]

Описание:
Далёкое будущее. Самоцветы — новая форма жизни, населяющая Землю. У них нет гендерных различий, но они наделены бессмертием. Однако жизнь их, как и у людей, непростая: лунные обитатели постоянно терроризируют новых землян, дабы похитить и превратить в обычные украшения. Поэтому 28 самоцветов должны противостоять захватчикам.
Каждому камню предназначена своя роль, например, воин или врач. Будучи всего 300-летним, Фосфофиллит (младший из всей расы), ещё не имеющий своего предназначения, хочет помочь в борьбе против лунных оккупантов, хотя он слишком слаб и хрупок для боя. Но вот, однажды, мастер Самоцветов — Адамантий — поручает ему создать энциклопедию истории самородков.
Автор рипа: Erai-raws
Качество: WEBRip
Формат видео: MPEG-4
Видео: AVC, 8 бит, 1920x1080; 23.976 кадра/сек; 4082 Кбит/сек, (16:9)
Аудио: AAC, 48,0 КГц, 162 Кбит/сек, 2 канала
Общее
Уникальный идентификатор : 185328139486661936596313558737812451480 (0x8B6CE6BE0DD1FA03BA910C7C5257F098)
Полное имя : G:\Anime\Houseki no Kuni\[Erai-raws] Houseki no Kuni (TV) - 01 [1080p].mkv
Формат : Matroska
Версия формата : Version 4 / Version 2
Размер файла : 733 Мбайт
Продолжительность : 24 м. 9 с.
Общий поток : 4244 Кбит/сек
Дата кодирования : UTC 2017-10-07 18:56:10
Программа кодирования : mkvmerge v13.0.0 ('The Juggler') 64bit
Библиотека кодирования : libebml v1.3.4 + libmatroska v1.4.5

Видео
Идентификатор : 1
Формат : AVC
Формат/Информация : Advanced Video Codec
Профиль формата : High@L4.1
Параметр CABAC формата : Да
Параметр ReFrames формата : 4 кадра
Идентификатор кодека : V_MPEG4/ISO/AVC
Продолжительность : 24 м. 9 с.
Битрейт : 4082 Кбит/сек
Ширина : 1920 пикселей
Высота : 1080 пикселей
Соотношение сторон : 16:9
Режим частоты кадров : Постоянный
Частота кадров : 23,976 (24000/1001) кадра/сек
Цветовое пространство : YUV
Субдискретизация насыщенности : 4:2:0
Битовая глубина : 8 бит
Тип развёртки : Прогрессивная
Бит/(Пиксели*Кадры) : 0.082
Размер потока : 705 Мбайт (96%)
Библиотека кодирования : x264 core 148
Настройки программы : cabac=1 / ref=3 / deblock=1:0:0 / analyse=0x3:0x113 / me=hex / subme=7 / psy=1 / psy_rd=1.00:0.00 / mixed_ref=1 / me_range=16 / chroma_me=1 / trellis=1 / 8x8dct=1 / cqm=0 / deadzone=21,11 / fast_pskip=1 / chroma_qp_offset=-2 / threads=34 / lookahead_threads=5 / sliced_threads=0 / nr=0 / decimate=1 / interlaced=0 / bluray_compat=0 / constrained_intra=0 / bframes=3 / b_pyramid=2 / b_adapt=1 / b_bias=0 / direct=1 / weightb=1 / open_gop=0 / weightp=2 / keyint=90 / keyint_min=9 / scenecut=0 / intra_refresh=0 / rc_lookahead=40 / rc=crf / mbtree=1 / crf=22.0 / qcomp=0.60 / qpmin=0 / qpmax=69 / qpstep=4 / vbv_maxrate=13500 / vbv_bufsize=135000 / crf_max=0.0 / nal_hrd=none / filler=0 / ip_ratio=1.40 / aq=1:1.00
Язык : Japanese
Default : Да
Forced : Нет

Аудио
Идентификатор : 2
Формат : AAC
Формат/Информация : Advanced Audio Codec
Профиль формата : LC
Идентификатор кодека : A_AAC
Продолжительность : 24 м. 9 с.
Битрейт : 159 Кбит/сек
Каналы : 2 канала
Расположение каналов : Front: L R
Частота : 48,0 КГц
Частота кадров : 46,875 кадров/сек (1024 spf)
Метод сжатия : С потерями
Задержка видео : -43 мс.
Размер потока : 27,5 Мбайт (4%)
Язык : Japanese
Default : Да
Forced : Нет

Текст
Идентификатор : 3
Формат : ASS
Идентификатор кодека : S_TEXT/ASS
Идентификатор кодека/Информация : Advanced Sub Station Alpha
Продолжительность : 23 м. 36 с.
Битрейт : 119 бит/сек
Count of elements : 419
Метод сжатия : Без потерь
Размер потока : 20,7 Кбайт (0%)
Язык : English
Default : Да
Forced : Нет
info [Профиль]  [ЛС] 

Alekseius

Пол: Пол:Муж

Стаж: 7 лет 8 месяцев

Сообщений: 59

Рейтинг

post 19-Окт-2017 00:58 (спустя 2 часа 41 минута) [-]0[+]

[Цитировать] 

Вселенная Стивена ты ли это?
info [Профиль]  [ЛС] 

90qn95mn

Пол: Пол:Муж

Стаж: 5 лет 10 месяцев

Сообщений: 91

Россия
Рейтинг

post 19-Окт-2017 01:25 (спустя 26 минут) [-]1[+]

[Цитировать] 

Alekseius
Вышло раньше!

_________________
info [Профиль]  [ЛС] 

anoningen

Стаж: 4 года 6 месяцев

Сообщений: 544

Самоа
Рейтинг

post 24-Окт-2017 00:08 (спустя 4 дня) [-]0[+]

[Цитировать] 

Добавил 3 серию.
info [Профиль]  [ЛС] 

anoningen

Стаж: 4 года 6 месяцев

Сообщений: 544

Самоа
Рейтинг

post 30-Окт-2017 21:46 (спустя 6 дней) [-]0[+]

[Цитировать] 

Добавил 4 серию.
info [Профиль]  [ЛС] 

anoningen

Стаж: 4 года 6 месяцев

Сообщений: 544

Самоа
Рейтинг

post 08-Ноя-2017 23:55 (спустя 9 дней) [-]0[+]

[Цитировать] 

Добавил 5 серию.
info [Профиль]  [ЛС] 

anoningen

Стаж: 4 года 6 месяцев

Сообщений: 544

Самоа
Рейтинг

post 13-Ноя-2017 22:11 (спустя 4 дня) [-]0[+]

[Цитировать] 

Добавил 6 серию.
info [Профиль]  [ЛС] 

anoningen

Стаж: 4 года 6 месяцев

Сообщений: 544

Самоа
Рейтинг

post 21-Ноя-2017 21:27 (спустя 7 дней) [-]0[+]

[Цитировать] 

Добавил 7 серию.
info [Профиль]  [ЛС] 
Показать сообщения:    
Ответить на тему

Текущее время: 23-Ноя 13:04

Часовой пояс: GMT + 4



Вы не можете начинать темы
Вы не можете отвечать на сообщения
Вы не можете редактировать свои сообщения
Вы не можете удалять свои сообщения
Вы не можете голосовать в опросах
Вы не можете прикреплять файлы к сообщениям
Вы не можете скачивать файлы