Ошибка

Стражи барьера и загранье / Blood Blockade Battlefront & Beyond / Kekkai Sensen & Beyond [TV] [1-12 из 12] [2017] [приключения, комедия, фэнтези] [WEBRip] [720p] [Профессиональный] MVO Kansai

Ответить на тему
 
Автор Сообщение

NovA_JKE

Пол: Пол:Жен

Стаж: 8 лет 3 месяца

Сообщений: 695

Антарктида
Рейтинг

post 15-Окт-2017 02:17 3[+]

[Цитировать] 

pic="https://image.ibb.co/kSOKiw/kek_2_260.png"


Стражи барьера и загранье | Blood Blockade Battlefront & Beyond | Kekkai Sensen & Beyond

Год выпуска: 2017
Страна: Япония
Жанр: приключения, комедия, фэнтези
Тип: TV
Продолжительность: 12 эп. x 25 мин.
Студия:
Режиссер: Такаянаги Сигэхито
Автор оригинала: Найто Ясухиро
Релиз: студия Kansai
Перевод: Студийная банда
Озвучивание: многоголосое закадровое [Студийная банда]


Описание: Три года назад сквозь портал в Нью Йорк проникли неизвестные существа. Город был ограждён от остальной планеты, а за порядком в нём стала следить организация Либра. Но, по ошибке, к ним попадает парень по имени Леонардо Уотч, который наделён "Всевидящим Оком Бога" - силой, дающей безграничные возможности.
Дополнительная информация:


Качество: WEBRip
Формат: mkv
Видео: h.264; 8 bit; 1280x720; 23,976 fps; ~1776 kbps
Аудио:
  1. RU: AAC-LC 2.0, 48 kHz, ~256 kbps
Субтитры: нет
  1. Lights, Camera, Action!
  2. A Phantom Hospital Ward Rises.
  3. Day In Day Out.
  4. Werewolf Mission: Chainpossible.
  5. One Butler`s Blitzkrieg.
  6. Get the Lock Out!!
  7. Branchial Blues.
  8. Desperate Fight in the Macro Zone Part 1.
  9. Desperate Fight in the Macro Zone, Part 2.
  10. Bratatat Mom.
  11. Spectral Eyes, Phantom Vision, Part 1.
  12. Spectral Eyes, Phantom Vision, Part 2.

Код:

Общее
Уникальный идентификатор                 : 221099019238796123547236096672028552835 (0xA6561F475CF5073482EC422DCA75EE83)
Полное имя                               : P:\NovA_JKE\Аниме\!DL Kekkai Sensen & Beyond (Стражи Барьера и Загранье) [WEBRip 720p, Студия KANSAI]\[KANSAI] Kekkai Sensen & Beyond - 01 [720p].mkv
Формат                                   : Matroska
Версия формата                           : Version 4 / Version 2
Размер файла                             : 349 Мбайт
Продолжительность                        : 24 м. 5 с.
Общий поток                              : 2023 Кбит/сек
Дата кодирования                         : UTC 2017-10-13 23:13:46
Программа кодирования                    : mkvmerge v12.0.0 ('Trust / Lust') 64bit
Библиотека кодирования                   : libebml v1.3.4 + libmatroska v1.4.5

Видео
Идентификатор                            : 1
Формат                                   : AVC
Формат/Информация                        : Advanced Video Codec
Профиль формата                          : High@L4
Параметр CABAC формата                   : Да
Параметр RefFrames формата               : 6 кадров
Идентификатор кодека                     : V_MPEG4/ISO/AVC
Продолжительность                        : 24 м. 0 с.
Битрейт                                  : 1776 Кбит/сек
Ширина                                   : 1280 пикселей
Высота                                   : 720 пикселей
Соотношение сторон                       : 16:9
Режим частоты кадров                     : Переменный
Частота кадров                           : 23,976 (23976/1000) кадра/сек
Цветовое пространство                    : YUV
Субдискретизация насыщенности            : 4:2:0
Битовая глубина                          : 8 бит
Тип развёртки                            : Прогрессивная
Бит/(Пиксели*Кадры)                      : 0.080
Размер потока                            : 304 Мбайт (87%)
Заголовок                                : https://kansai.studio
Библиотека кодирования                   : x264 core 120 r2120 0c7dab9
Настройки программы                      : cabac=1 / ref=6 / deblock=1:1:1 / analyse=0x3:0x113 / me=umh / subme=8 / psy=1 / psy_rd=0.40:0.00 / mixed_ref=1 / me_range=16 / chroma_me=1 / trellis=1 / 8x8dct=1 / cqm=0 / deadzone=21,11 / fast_pskip=1 / chroma_qp_offset=-2 / threads=4 / sliced_threads=0 / nr=0 / decimate=1 / interlaced=0 / bluray_compat=0 / constrained_intra=0 / bframes=3 / b_pyramid=2 / b_adapt=2 / b_bias=0 / direct=3 / weightb=1 / open_gop=0 / weightp=2 / keyint=250 / keyint_min=23 / scenecut=40 / intra_refresh=0 / rc_lookahead=50 / rc=2pass / mbtree=1 / bitrate=1776 / ratetol=1.0 / qcomp=0.60 / qpmin=0 / qpmax=69 / qpstep=4 / cplxblur=20.0 / qblur=0.5 / vbv_maxrate=3552 / vbv_bufsize=8880 / nal_hrd=none / ip_ratio=1.40 / aq=1:0.60
Язык                                     : Japanese
Default                                  : Да
Forced                                   : Нет

Аудио
Идентификатор                            : 2
Формат                                   : AAC
Формат/Информация                        : Advanced Audio Codec
Профиль формата                          : LC
Идентификатор кодека                     : A_AAC
Продолжительность                        : 24 м. 5 с.
Битрейт                                  : 258 Кбит/сек
Каналы                                   : 2 канала
Расположение каналов                     : Front: L R
Частота                                  : 48,0 КГц
Частота кадров                           : 46,875 кадров/сек (1024 SPF)
Метод сжатия                             : С потерями
Размер потока                            : 44,4 Мбайт (13%)
Заголовок                                : KANSAI Studio
Язык                                     : Russian
Default                                  : Да
Forced                                   : Нет
info [Профиль]  [ЛС] 

AzGeroth

Пол: Пол:Муж

Стаж: 8 лет 4 месяца

Сообщений: 107

СССР
Рейтинг

post 16-Окт-2017 11:45 (спустя 1 день 9 часов) [-]0[+]

[Цитировать] 

Я так понимаю, продолжение?

_________________
Мудрость - это не морщины, а извилины.
info [Профиль]  [ЛС] 

NovA_JKE

Пол: Пол:Жен

Стаж: 8 лет 3 месяца

Сообщений: 695

Антарктида
Рейтинг

post 04-Ноя-2017 11:14 (спустя 18 дней) [-]0[+]

[Цитировать] 

upd. 2я и 3я серии
info [Профиль]  [ЛС] 

TeslaTrooper

Пол: Пол:Муж

Стаж: 8 лет 4 месяца

Сообщений: 10

СССР
Рейтинг

post 04-Ноя-2017 12:59 (спустя 1 час 44 минуты) [-]0[+]

[Цитировать] 

NovA_JKE писал(а):

upd. 2я и 3я серии
Судя по данным на WorldArt да, это ТВ-2

_________________
-------
info [Профиль]  [ЛС] 

NovA_JKE

Пол: Пол:Жен

Стаж: 8 лет 3 месяца

Сообщений: 695

Антарктида
Рейтинг

post 13-Ноя-2017 23:31 (спустя 9 дней) [-]0[+]

[Цитировать] 

upd. 4я и 5я серии
info [Профиль]  [ЛС] 

NovA_JKE

Пол: Пол:Жен

Стаж: 8 лет 3 месяца

Сообщений: 695

Антарктида
Рейтинг

post 15-Ноя-2017 20:27 (спустя 1 день 20 часов) [-]0[+]

[Цитировать] 

upd. 6я серия
info [Профиль]  [ЛС] 

ReZooR

Пол: Пол:Муж

Стаж: 9 лет 2 месяца

Сообщений: 34

Рейтинг

post 06-Дек-2017 01:05 (спустя 20 дней) [-]-1[+]

[Цитировать] 

Аааууу, еще будет ?

добавлено спустя 1 минута 2 секунды:

Где качнуть? Сам найду.

добавлено спустя 2 минуты:

Все, нашел, комент можно удалять )
info [Профиль]  [ЛС] 

NovA_JKE

Пол: Пол:Жен

Стаж: 8 лет 3 месяца

Сообщений: 695

Антарктида
Рейтинг

post 16-Дек-2017 03:15 (спустя 10 дней) [-]0[+]

[Цитировать] 

upd. 7-10 серии
info [Профиль]  [ЛС] 

NovA_JKE

Пол: Пол:Жен

Стаж: 8 лет 3 месяца

Сообщений: 695

Антарктида
Рейтинг

post 27-Дек-2017 19:52 (спустя 11 дней) [-]0[+]

[Цитировать] 

upd. 11,12 серии. конец.
info [Профиль]  [ЛС] 
Показать сообщения:    
Ответить на тему

Текущее время: 22-Июн 07:14

Часовой пояс: GMT + 4



Вы не можете начинать темы
Вы не можете отвечать на сообщения
Вы не можете редактировать свои сообщения
Вы не можете удалять свои сообщения
Вы не можете голосовать в опросах
Вы не можете прикреплять файлы к сообщениям
Вы не можете скачивать файлы