Ошибка

А просто так! / Just Because! [TV] [1-4 из 12] [2017] [драма, романтика, школа, повседневность] [WEBRip] [720p] [Профессиональный] MVO Kansai

Ответить на тему
 
Автор Сообщение

NovA_JKE

Пол: Пол:Жен

Стаж: 7 лет 8 месяцев

Сообщений: 654

Антарктида
Рейтинг

post 15-Окт-2017 02:15 2[+]

[Цитировать] 

pic="https://image.ibb.co/mfVMwG/just_b_260.png"


А просто так! | Just Because!

Год выпуска: 2017
Страна: Япония
Жанр: драма, романтика, школа, повседневность
Тип: TV
Продолжительность: 12 эп. x 25 мин.
Студия:
Режиссер: Кобаяси Ацуси
Автор оригинала: ...
Релиз: студия Kansai
Перевод: студия Kansai
Озвучивание: многоголосое закадровое


Описание: Второй семестр одиннадцатого класса. Время, когда головы школьников пухнут от подготовки к экзаменам и неизвестности приближающейся взрослой жизни. Казалось бы, как вместить в такой насыщенный период жизни что-то, кроме волнений о будущем? Так и думают четверо друзей-одноклассников, пока в один прекрасный день в школу не возвращается их товарищ из средней школы.
Дополнительная информация:


Качество: WEBRip
Формат: mkv
Видео: h.264; 8 bit; 1280x720; 23,976 fps; ~855 kbps
Аудио:
  1. RU: AAC-LC 2.0, 48 kHz, ~256 kbps
Субтитры: нет
  1. On Your Marks!
  2. Question.
  3. Andante.
  4. Full Swing.

Код:

Общее
Уникальный идентификатор                 : 205477797569197220888836542393427221929 (0x9A9595964AC79401B2D5820FA928DDA9)
Полное имя                               : P:\NovA_JKE\Аниме\!DL Just Because! (А просто так!) [WEBRip 720p, Студия KANSAI]\[KANSAI] Just Because! - 01 [720p].mkv
Формат                                   : Matroska
Версия формата                           : Version 4 / Version 2
Размер файла                             : 188 Мбайт
Продолжительность                        : 23 м. 57 с.
Режим общего битрейта                    : Переменный
Общий поток                              : 1097 Кбит/сек
Дата кодирования                         : UTC 2017-10-10 23:10:42
Программа кодирования                    : mkvmerge v12.0.0 ('Trust / Lust') 64bit
Библиотека кодирования                   : libebml v1.3.4 + libmatroska v1.4.5

Видео
Идентификатор                            : 1
Формат                                   : AVC
Формат/Информация                        : Advanced Video Codec
Профиль формата                          : High@L3.1
Параметр CABAC формата                   : Да
Параметр RefFrames формата               : 5 кадров
Идентификатор кодека                     : V_MPEG4/ISO/AVC
Продолжительность                        : 23 м. 57 с.
Вид битрейта                             : Переменный
Битрейт                                  : 855 Кбит/сек
Максимальный битрейт                     : 4500 Кбит/сек
Ширина                                   : 1280 пикселей
Высота                                   : 720 пикселей
Соотношение сторон                       : 16:9
Режим частоты кадров                     : Постоянный
Частота кадров                           : 23,976 (24000/1001) кадра/сек
Цветовое пространство                    : YUV
Субдискретизация насыщенности            : 4:2:0
Битовая глубина                          : 8 бит
Тип развёртки                            : Прогрессивная
Бит/(Пиксели*Кадры)                      : 0.039
Размер потока                            : 146 Мбайт (78%)
Заголовок                                : https://kansai.studio
Язык                                     : Japanese
Default                                  : Да
Forced                                   : Нет
Цветовой диапазон                        : Limited
Основные цвета                           : BT.709
Характеристики трансфера                 : BT.709
Коэффициенты матрицы                     : BT.709

Аудио
Идентификатор                            : 2
Формат                                   : AAC
Формат/Информация                        : Advanced Audio Codec
Профиль формата                          : LC
Идентификатор кодека                     : A_AAC
Продолжительность                        : 23 м. 57 с.
Битрейт                                  : 239 Кбит/сек
Каналы                                   : 2 канала
Расположение каналов                     : Front: L R
Частота                                  : 48,0 КГц
Частота кадров                           : 46,875 кадров/сек (1024 SPF)
Метод сжатия                             : С потерями
Размер потока                            : 41,0 Мбайт (22%)
Заголовок                                : KANSAI Studio
Язык                                     : Russian
Default                                  : Да
Forced                                   : Нет
info [Профиль]  [ЛС] 

Ritsu

Пол: Пол:Муж

Стаж: 6 лет 4 месяца

Сообщений: 897

Австралия
Рейтинг

post 16-Окт-2017 06:12 (спустя 1 день 3 часа) [-]0[+]

[Цитировать] 

Подписался.

_________________
Флудите вместе с Рицу и будет вам счастье! ^__^

"...Зажжем рок в этой дыре!.."
info [Профиль]  [ЛС] 

NovA_JKE

Пол: Пол:Жен

Стаж: 7 лет 8 месяцев

Сообщений: 654

Антарктида
Рейтинг

post 04-Ноя-2017 11:13 (спустя 19 дней) [-]0[+]

[Цитировать] 

upd. 2я серия
info [Профиль]  [ЛС] 

NovA_JKE

Пол: Пол:Жен

Стаж: 7 лет 8 месяцев

Сообщений: 654

Антарктида
Рейтинг

post 13-Ноя-2017 23:27 (спустя 9 дней) [-]0[+]

[Цитировать] 

upd. 3-4 серии
info [Профиль]  [ЛС] 
Показать сообщения:    
Ответить на тему

Текущее время: 23-Ноя 13:02

Часовой пояс: GMT + 4



Вы не можете начинать темы
Вы не можете отвечать на сообщения
Вы не можете редактировать свои сообщения
Вы не можете удалять свои сообщения
Вы не можете голосовать в опросах
Вы не можете прикреплять файлы к сообщениям
Вы не можете скачивать файлы