Ошибка

Судный день / Dies Irae [TV] [1-3 из 12] [2017] [приключения] [WEBRip] [720p] [Профессиональный] MVO Kansai

Ответить на тему
 
Автор Сообщение

NovA_JKE

Пол: Пол:Жен

Стаж: 7 лет 8 месяцев

Сообщений: 653

Антарктида
Рейтинг

post 15-Окт-2017 02:13 0[+]

[Цитировать] 

pic="https://image.ibb.co/m9yDAb/dies_i_260_1.png"


Судный день | Dies Irae

Год выпуска: 2017
Страна: Япония
Жанр: приключения
Тип: TV
Продолжительность: 18 эп. x 25 мин.
Студия:
Режиссер: Кудо Сусуму
Автор оригинала: Light
Релиз: студия Kansai
Перевод: студия Kansai
Озвучивание: многоголосое закадровое


Описание: Победа над Третьим Рейхом может стать катастрофой. Бесчисленные души солдат, павших при взятии Берлина, дали силу противоестественному ритуалу. Исполнившие его чародеи бесследно исчезли, но сохранилось поверье, что они ещё вернутся, и уничтожат этот мир.
Дополнительная информация:


Качество: WEBRip
Формат: mkv
Видео: h.264; 8 bit; 1280x720; 23,976 fps; ~1776 kbps
Аудио:
  1. RU: AAC-LC 2.0, 48 kHz, ~256 kbps
Субтитры: нет
  1. Episode 0: The Dawning Days.
  2. Twilight Girl.
  3. The Claws and Fangs of a Beast.

Код:

Общее
Уникальный идентификатор                 : 204138860705449239044963985371980179446 (0x9993B6E72672B159B37D0DC7871D27F6)
Полное имя                               : P:\NovA_JKE\Аниме\!DL Dies Irae (Судный День) [WEBRip 720p, Студия KANSAI]\[KANSAI] Dies Irae - 00 [720p].mkv
Формат                                   : Matroska
Версия формата                           : Version 4 / Version 2
Размер файла                             : 345 Мбайт
Продолжительность                        : 23 м. 40 с.
Общий поток                              : 2036 Кбит/сек
Дата кодирования                         : UTC 2017-10-09 18:14:46
Программа кодирования                    : mkvmerge v12.0.0 ('Trust / Lust') 64bit
Библиотека кодирования                   : libebml v1.3.4 + libmatroska v1.4.5

Видео
Идентификатор                            : 1
Формат                                   : AVC
Формат/Информация                        : Advanced Video Codec
Профиль формата                          : High@L4
Параметр CABAC формата                   : Да
Параметр RefFrames формата               : 6 кадров
Идентификатор кодека                     : V_MPEG4/ISO/AVC
Продолжительность                        : 23 м. 40 с.
Битрейт                                  : 1776 Кбит/сек
Ширина                                   : 1280 пикселей
Высота                                   : 720 пикселей
Соотношение сторон                       : 16:9
Режим частоты кадров                     : Переменный
Частота кадров                           : 23,976 (23976/1000) кадра/сек
Цветовое пространство                    : YUV
Субдискретизация насыщенности            : 4:2:0
Битовая глубина                          : 8 бит
Тип развёртки                            : Прогрессивная
Бит/(Пиксели*Кадры)                      : 0.080
Размер потока                            : 300 Мбайт (87%)
Заголовок                                : https://kansai.studio
Библиотека кодирования                   : x264 core 120 r2120 0c7dab9
Настройки программы                      : cabac=1 / ref=6 / deblock=1:1:1 / analyse=0x3:0x113 / me=umh / subme=8 / psy=1 / psy_rd=0.40:0.00 / mixed_ref=1 / me_range=16 / chroma_me=1 / trellis=1 / 8x8dct=1 / cqm=0 / deadzone=21,11 / fast_pskip=1 / chroma_qp_offset=-2 / threads=4 / sliced_threads=0 / nr=0 / decimate=1 / interlaced=0 / bluray_compat=0 / constrained_intra=0 / bframes=3 / b_pyramid=2 / b_adapt=2 / b_bias=0 / direct=3 / weightb=1 / open_gop=0 / weightp=2 / keyint=250 / keyint_min=23 / scenecut=40 / intra_refresh=0 / rc_lookahead=50 / rc=2pass / mbtree=1 / bitrate=1776 / ratetol=1.0 / qcomp=0.60 / qpmin=0 / qpmax=69 / qpstep=4 / cplxblur=20.0 / qblur=0.5 / vbv_maxrate=3552 / vbv_bufsize=8880 / nal_hrd=none / ip_ratio=1.40 / aq=1:0.60
Язык                                     : Japanese
Default                                  : Да
Forced                                   : Нет

Аудио
Идентификатор                            : 2
Формат                                   : AAC
Формат/Информация                        : Advanced Audio Codec
Профиль формата                          : LC
Идентификатор кодека                     : A_AAC
Продолжительность                        : 23 м. 40 с.
Битрейт                                  : 265 Кбит/сек
Каналы                                   : 2 канала
Расположение каналов                     : Front: L R
Частота                                  : 48,0 КГц
Частота кадров                           : 46,875 кадров/сек (1024 SPF)
Метод сжатия                             : С потерями
Размер потока                            : 44,1 Мбайт (13%)
Заголовок                                : KANSAI Studio
Язык                                     : Russian
Default                                  : Да
Forced                                   : Нет
info [Профиль]  [ЛС] 

mitry134

Пол: Пол:Муж

Стаж: 7 лет 8 месяцев

Сообщений: 123

Россия
Рейтинг

post 16-Окт-2017 20:03 (спустя 1 день 17 часов) [-]0[+]

[Цитировать] 

NovA_JKE
Спасибо! Ждем продолжения, хотелось бы оригинальную озвучку добавить, и неужели нельзя обойтись без рекламы? Хотя бы обозначили, что она тут в наличии.
info [Профиль]  [ЛС] 

NovA_JKE

Пол: Пол:Жен

Стаж: 7 лет 8 месяцев

Сообщений: 653

Антарктида
Рейтинг

post 04-Ноя-2017 17:55 (спустя 18 дней) [-]0[+]

[Цитировать] 

upd. 2-3 эпизоды
info [Профиль]  [ЛС] 

Shakaaho

Пол: Пол:Муж

Стаж: 3 года 5 месяцев

Сообщений: 1107

Россия
Рейтинг

post 04-Ноя-2017 18:33 (спустя 38 минут) [-]1[+]

[Цитировать] 

скрины не грузытся
info [Профиль]  [ЛС] 
Показать сообщения:    
Ответить на тему

Текущее время: 17-Ноя 23:32

Часовой пояс: GMT + 4



Вы не можете начинать темы
Вы не можете отвечать на сообщения
Вы не можете редактировать свои сообщения
Вы не можете удалять свои сообщения
Вы не можете голосовать в опросах
Вы не можете прикреплять файлы к сообщениям
Вы не можете скачивать файлы