Ошибка
Загрузка...

Королевская игра / Ousama Game The Animation [TV] [1-12 из 12] [2017] [драма, ужасы, детектив, сверхъестественное] [WEBRip] [1080p] [Субтитры (JAP)]

Ответить на тему
 
Автор Сообщение

anoningen

Стаж: 5 лет

Сообщений: 662

Самоа
Рейтинг

post 11-Окт-2017 00:20 0[+]

[Цитировать] 

Королевская игра
Ousama Game The Animation
King's Game The Animation
王様ゲーム The Animation

Год выпуска:
2017.
Тип: TV
Жанр: драма, ужасы, детектив, сверхъестественное
Режиссер: Сасаки Токиёси
Автор оригинала: Рэнда Хитори
Студия:
Продолжительность: 12 эп. по 25 мин
Русские субтитры: ASS, внешним файлом

Субтитры 1: [YakuSub Studio]
Переводчик/Оформитель: Nika_Elrik

Субтитры 2: [Sovet Romantica]
Переводчик: Alvakarp

Описание:
Нобуаки Каназава, который перевёлся в новую старшую школу далеко от предыдущей, боится заводить близкие отношения с новыми одноклассниками из-за событий, происходивших в старой школе. Страх вынудил парня полностью отгородиться ото всех. Однако, во время командной игры с классом на спортивном фестивале Нобуаки начинает раскрываться. Внезапно, Каназава и его одноклассники получают электронное письмо от некоего «Короля». Сначала ребята не воспринимают написанное всерьёз — шуток никто не отменял... Но Нобуаки, единственному понимающему истинный смысл письма, не до забав. Юноша готов к борьбе со смертельной игрой, которая вот-вот начнётся...
Правила «Королевской игры» таковы:
1. Все ученики класса должны принимать участие;
2. Приказ, присланный Королём через электронное письмо, должен быть выполнен за последующие 24 часа;
3. За невыполнение приказа следует наказание;
4. Выход из «Королевской игры» запрещён.


Автор рипа: Erai-raws
Качество: WebRip
Формат видео: MPEG-4
Видео: AVC, 8 бит, 1920x1080; 23.976 кадра/сек; 3402 Кбит/сек, (16:9)
Аудио: AAC, 44,1 КГц, 128 Кбит/сек, 2 канала
Общее
Уникальный идентификатор : 253719603626111453885288681380864345930 (0xBEE09E43055E410A94756F073484474A)
Полное имя : G:\Anime\Ousama Game\[Erai-raws] Ousama Game The Animation - 01 [1080p][Multiple Subtitle].mkv
Формат : Matroska
Версия формата : Version 4 / Version 2
Размер файла : 599 Мбайт
Продолжительность : 23 м. 41 с.
Общий поток : 3533 Кбит/сек
Дата кодирования : UTC 2017-10-05 16:05:30
Программа кодирования : mkvmerge v12.0.0 ('Trust / Lust') 64bit
Библиотека кодирования : libebml v1.3.4 + libmatroska v1.4.5

Видео
Идентификатор : 1
Формат : AVC
Формат/Информация : Advanced Video Codec
Профиль формата : High@L4
Настройки формата : CABAC / 4 Ref Frames
Параметр CABAC формата : Да
Параметр RefFrames формата : 4 кадра
Идентификатор кодека : V_MPEG4/ISO/AVC
Продолжительность : 23 м. 41 с.
Битрейт : 3402 Кбит/сек
Ширина : 1920 пикселей
Высота : 1080 пикселей
Соотношение сторон : 16:9
Режим частоты кадров : Постоянный
Частота кадров : 23,976 (24000/1001) кадра/сек
Цветовое пространство : YUV
Субдискретизация насыщенности : 4:2:0
Битовая глубина : 8 бит
Тип развёртки : Прогрессивная
Бит/(Пиксели*Кадры) : 0.068
Размер потока : 576 Мбайт (96%)
Библиотека кодирования : x264 core 142
Настройки программы : cabac=1 / ref=4 / deblock=1:1:1 / analyse=0x3:0x113 / me=umh / subme=8 / psy=1 / psy_rd=0.40:0.00 / mixed_ref=1 / me_range=16 / chroma_me=1 / trellis=1 / 8x8dct=1 / cqm=0 / deadzone=21,11 / fast_pskip=1 / chroma_qp_offset=-2 / threads=12 / lookahead_threads=2 / sliced_threads=0 / nr=0 / decimate=1 / interlaced=0 / bluray_compat=0 / constrained_intra=0 / bframes=3 / b_pyramid=2 / b_adapt=2 / b_bias=0 / direct=3 / weightb=1 / open_gop=0 / weightp=2 / keyint=48 / keyint_min=24 / scenecut=40 / intra_refresh=0 / rc_lookahead=48 / rc=crf / mbtree=1 / crf=15.0 / qcomp=0.60 / qpmin=0 / qpmax=69 / qpstep=4 / vbv_maxrate=8000 / vbv_bufsize=12000 / crf_max=0.0 / nal_hrd=none / filler=0 / ip_ratio=1.40 / aq=1:0.60
Default : Да
Forced : Нет

Аудио
Идентификатор : 2
Формат : AAC
Формат/Информация : Advanced Audio Codec
Профиль формата : LC
Идентификатор кодека : A_AAC-2
Продолжительность : 23 м. 41 с.
Битрейт : 128 Кбит/сек
Каналы : 2 канала
Расположение каналов : Front: L R
Частота : 44,1 КГц
Частота кадров : 43,066 кадра/сек (1024 SPF)
Метод сжатия : С потерями
Задержка видео : -83 мс.
Размер потока : 21,7 Мбайт (4%)
Default : Да
Forced : Нет

Текст #1
Идентификатор : 3
Формат : ASS
Идентификатор кодека : S_TEXT/ASS
Идентификатор кодека/Информация : Advanced Sub Station Alpha
Продолжительность : 23 м. 27 с.
Битрейт : 152 бит/сек
ElementCount : 362
Метод сжатия : Без потерь
Размер потока : 26,1 Кбайт (0%)
Заголовок : English(US)
Default : Да
Forced : Нет

Текст #2
Идентификатор : 4
Формат : ASS
Идентификатор кодека : S_TEXT/ASS
Идентификатор кодека/Информация : Advanced Sub Station Alpha
Продолжительность : 23 м. 27 с.
Битрейт : 151 бит/сек
ElementCount : 347
Метод сжатия : Без потерь
Размер потока : 26,0 Кбайт (0%)
Заголовок : Espaأ±ol
Default : Нет
Forced : Нет

Текст #3
Идентификатор : 5
Формат : ASS
Идентификатор кодека : S_TEXT/ASS
Идентификатор кодека/Информация : Advanced Sub Station Alpha
Продолжительность : 23 м. 27 с.
Битрейт : 151 бит/сек
ElementCount : 355
Метод сжатия : Без потерь
Размер потока : 26,0 Кбайт (0%)
Заголовок : Portuguأھs(Brasil)
Default : Нет
Forced : Нет
info [Профиль]  [ЛС] 

General_Gatz

Стаж: 5 лет

Сообщений: 216

Рейтинг

post 11-Окт-2017 18:07 (спустя 17 часов) [-]0[+]

[Цитировать] 

В манге персонажи по лучше отрисованы) Да и судя по скринам, от манги тут только сама суть происходящего.
info [Профиль]  [ЛС] 

anoningen

Стаж: 5 лет

Сообщений: 662

Самоа
Рейтинг

post 14-Окт-2017 01:54 (спустя 2 дня 7 часов) [-]0[+]

[Цитировать] 

Добавил 2 серию.
info [Профиль]  [ЛС] 

anoningen

Стаж: 5 лет

Сообщений: 662

Самоа
Рейтинг

post 20-Окт-2017 23:16 (спустя 6 дней) [-]0[+]

[Цитировать] 

Добавил 3 серию.
info [Профиль]  [ЛС] 

anoningen

Стаж: 5 лет

Сообщений: 662

Самоа
Рейтинг

post 27-Окт-2017 22:32 (спустя 6 дней) [-]0[+]

[Цитировать] 

Добавил 4 серию.
info [Профиль]  [ЛС] 

shirasi

Пол: Пол:Муж

Стаж: 9 лет 1 месяц

Сообщений: 917

СССР
Рейтинг

post 28-Окт-2017 13:26 (спустя 14 часов) [-]0[+]

[Цитировать] 

это тип голодные игры? королевская битва с такеши китано?

_________________
Dance 4 life
info [Профиль]  [ЛС] 

anoningen

Стаж: 5 лет

Сообщений: 662

Самоа
Рейтинг

post 03-Ноя-2017 21:38 (спустя 6 дней) [-]0[+]

[Цитировать] 

Добавил 5 серию.
info [Профиль]  [ЛС] 

anoningen

Стаж: 5 лет

Сообщений: 662

Самоа
Рейтинг

post 11-Ноя-2017 18:29 (спустя 7 дней) [-]0[+]

[Цитировать] 

Добавил 6 серию.
info [Профиль]  [ЛС] 

anoningen

Стаж: 5 лет

Сообщений: 662

Самоа
Рейтинг

post 18-Ноя-2017 21:50 (спустя 7 дней) [-]0[+]

[Цитировать] 

Добавил 7 серию.
info [Профиль]  [ЛС] 

anoningen

Стаж: 5 лет

Сообщений: 662

Самоа
Рейтинг

post 24-Ноя-2017 00:11 (спустя 5 дней) [-]0[+]

[Цитировать] 

Добавил 8 серию.
info [Профиль]  [ЛС] 

anoningen

Стаж: 5 лет

Сообщений: 662

Самоа
Рейтинг

post 04-Дек-2017 00:05 (спустя 9 дней) [-]0[+]

[Цитировать] 

Добавил 9 серию.
info [Профиль]  [ЛС] 

anoningen

Стаж: 5 лет

Сообщений: 662

Самоа
Рейтинг

post 09-Дек-2017 15:21 (спустя 5 дней) [-]0[+]

[Цитировать] 

Добавил 10 серию.
info [Профиль]  [ЛС] 

anoningen

Стаж: 5 лет

Сообщений: 662

Самоа
Рейтинг

post 17-Дек-2017 16:05 (спустя 8 дней) [-]0[+]

[Цитировать] 

Добавил 11 серию.
Временно равка от [Erai-raws]
Общее
Уникальный идентификатор : 199446478576630913626096533870904956078 (0x960BFE9A2131DECE9820CD1D4D3D54AE)
Полное имя : G:\Anime\Ousama Game\[Erai-raws] Ousama Game The Animation - 11 [1080p][Multiple Subtitle].mkv
Формат : Matroska
Версия формата : Version 4 / Version 2
Размер файла : 708 Мбайт
Продолжительность : 23 м. 41 с.
Общий поток : 4177 Кбит/сек
Дата кодирования : UTC 2017-12-15 14:50:51
Программа кодирования : mkvmerge v12.0.0 ('Trust / Lust') 64bit
Библиотека кодирования : libebml v1.3.4 + libmatroska v1.4.5

Видео
Идентификатор : 1
Формат : AVC
Формат/Информация : Advanced Video Codec
Профиль формата : High@L4
Настройки формата : CABAC / 4 Ref Frames
Параметр CABAC формата : Да
Параметр RefFrames формата : 4 кадра
Идентификатор кодека : V_MPEG4/ISO/AVC
Продолжительность : 23 м. 41 с.
Битрейт : 4046 Кбит/сек
Ширина : 1920 пикселей
Высота : 1080 пикселей
Соотношение сторон : 16:9
Режим частоты кадров : Постоянный
Частота кадров : 23,976 (24000/1001) кадра/сек
Цветовое пространство : YUV
Субдискретизация насыщенности : 4:2:0
Битовая глубина : 8 бит
Тип развёртки : Прогрессивная
Бит/(Пиксели*Кадры) : 0.081
Размер потока : 686 Мбайт (97%)
Библиотека кодирования : x264 core 142
Настройки программы : cabac=1 / ref=4 / deblock=1:1:1 / analyse=0x3:0x113 / me=umh / subme=8 / psy=1 / psy_rd=0.40:0.00 / mixed_ref=1 / me_range=16 / chroma_me=1 / trellis=1 / 8x8dct=1 / cqm=0 / deadzone=21,11 / fast_pskip=1 / chroma_qp_offset=-2 / threads=12 / lookahead_threads=2 / sliced_threads=0 / nr=0 / decimate=1 / interlaced=0 / bluray_compat=0 / constrained_intra=0 / bframes=3 / b_pyramid=2 / b_adapt=2 / b_bias=0 / direct=3 / weightb=1 / open_gop=0 / weightp=2 / keyint=48 / keyint_min=24 / scenecut=40 / intra_refresh=0 / rc_lookahead=48 / rc=crf / mbtree=1 / crf=15.0 / qcomp=0.60 / qpmin=0 / qpmax=69 / qpstep=4 / vbv_maxrate=8000 / vbv_bufsize=12000 / crf_max=0.0 / nal_hrd=none / filler=0 / ip_ratio=1.40 / aq=1:0.60
Default : Да
Forced : Нет

Аудио
Идентификатор : 2
Формат : AAC
Формат/Информация : Advanced Audio Codec
Профиль формата : LC
Идентификатор кодека : A_AAC-2
Продолжительность : 23 м. 41 с.
Битрейт : 128 Кбит/сек
Каналы : 2 канала
Расположение каналов : Front: L R
Частота : 44,1 КГц
Частота кадров : 43,066 кадра/сек (1024 SPF)
Метод сжатия : С потерями
Задержка видео : -83 мс.
Размер потока : 21,7 Мбайт (3%)
Default : Да
Forced : Нет

Текст #1
Идентификатор : 3
Формат : ASS
Идентификатор кодека : S_TEXT/ASS
Идентификатор кодека/Информация : Advanced Sub Station Alpha
Продолжительность : 21 м. 56 с.
Битрейт : 113 бит/сек
ElementCount : 294
Метод сжатия : Без потерь
Размер потока : 18,2 Кбайт (0%)
Заголовок : English(US)
Язык : English
Default : Да
Forced : Нет

Текст #2
Идентификатор : 4
Формат : ASS
Идентификатор кодека : S_TEXT/ASS
Идентификатор кодека/Информация : Advanced Sub Station Alpha
Продолжительность : 21 м. 56 с.
Битрейт : 113 бит/сек
ElementCount : 284
Метод сжатия : Без потерь
Размер потока : 18,2 Кбайт (0%)
Заголовок : Espaأ±ol
Язык : Spanish
Default : Нет
Forced : Нет

Текст #3
Идентификатор : 5
Формат : ASS
Идентификатор кодека : S_TEXT/ASS
Идентификатор кодека/Информация : Advanced Sub Station Alpha
Продолжительность : 21 м. 56 с.
Битрейт : 111 бит/сек
ElementCount : 293
Метод сжатия : Без потерь
Размер потока : 17,9 Кбайт (0%)
Заголовок : Portuguأھs(Brasil)
Язык : Portuguese
Default : Нет
Forced : Нет
info [Профиль]  [ЛС] 

anoningen

Стаж: 5 лет

Сообщений: 662

Самоа
Рейтинг

post 23-Дек-2017 15:36 (спустя 5 дней) [-]0[+]

[Цитировать] 

Добавил 12 серию.
Так как равки 11 серии в 1080р от HorribleSubs до сих пор нет, поменял видео на Erai-raws.
info [Профиль]  [ЛС] 
Показать сообщения:    
Ответить на тему

Текущее время: 24-Май 02:49

Часовой пояс: GMT + 4



Вы не можете начинать темы
Вы не можете отвечать на сообщения
Вы не можете редактировать свои сообщения
Вы не можете удалять свои сообщения
Вы не можете голосовать в опросах
Вы не можете прикреплять файлы к сообщениям
Вы не можете скачивать файлы