Ошибка
Загрузка...

Гадкий Я - Трилогия / Despicable Me - Trilogy (Пьер Коффан, Крис Рено,Эрик Гуильон, Кайл Балда) [2010-2017 г., мультфильм, комедия, семейный BDRip 1080p] [ 60 FPS ]

Ответить на тему
 
Автор Сообщение

BAAIT

Пол: Пол:Муж

Стаж: 3 года 5 месяцев

Сообщений: 61

Рейтинг

post 26-Сен-2017 15:17 0[+]

[Цитировать] 

Гадкий Я 1-3 / Despicable Me 1-3


Видео Гадкий Я: 1920x1040 , 14.0 Mb/s , 59.940 fps
Видео Гадкий Я 2: 1920x1032 , 14.0 Mb/s , 59.940 fps
Видео Гадкий Я 3: 1920x800 , 13.0 Mb/s , 59.940 fps
Релиз группа:
Рейтинг Гадкий Я:
Рейтинг Гадкий Я 2:
Рейтинг Гадкий Я 3:
Просьба к переливающим на другие сайты, в оформлении указывайте пожалуйста авторство группы GTP.RG
Гадкий Я / Despicable Me

pic="http://s010.radikal.ru/i312/1709/ab/e29a43f02164.png"
Год выпуска: 2010
Страна: США
Жанр: мультфильм, комедия, семейный
Продолжительность: 01:34:42
Перевод: Дубляж [BD CEE]
Режиссер: Пьер Соффин, Крис Рено

В ролях:Стив Карелл, Джейсон Сигел, Расселл Брэнд, Джули Эндрюс, Уилл Арнетт, Кристен Уиг, Миранда Косгров, Дэна Гайер, Пьер Коффен, Крис Рено, Джемейн Клемент, Джек МакБрайер, Дэнни МакБрайд, Минди Калинг, Кен Даурио

Описание: Гадкий снаружи, но добрый внутри Грю намерен, тем не менее, закрепить за собой статус главного архизлодея в мире, для чего он решает выкрасть Луну при помощи созданной им армии миньонов. Дело осложняют конкуренты, вставляющие высокотехнические палки в колеса, и семейные обстоятельства в виде трех сироток, о которых Грю вынужден заботиться.


Релиз группа:
Качество: BDRip 1080p 60FPS
Формат: mkv
Видео кодек: MPEG-4 AVC
Аудио кодек: DTS , AC3
Видео: 1920x1040 , 14.0 Mb/s , 59.940 fps
Аудио:
  • RUS Дубляж DTS , 768 kb/s , 6 channels
  • ENG Original DTS , 3 963 kb/s , 6 channels
    Субтитры:
  • RUS Форсированные субтитры (только надписи)
  • RUS Полные субтитры [Евгений Воронин]


Просьба к переливающим на другие сайты, в оформлении указывайте пожалуйста авторство группы GTP.RG
General
Unique ID : 175710985179827740489374399283019524109 (0x8430B46D3841E0C5A71EC185E40E280D)
Complete name : F:Торент60fpsDespicable.Me.2010.1080p.BDRip.GTP.60FPS.mkv
Format : Matroska
Format version : Version 4 / Version 2
File size : 12.2 GiB
Duration : 1 h 34 min
Overall bit rate : 18.5 Mb/s
Movie name : Despicable.Me.2010.1080p.BDRip.GTP.60FPS
Encoded date : UTC 2016-09-08 18:42:53
Writing application : mkvmerge v9.4.0 ('Knurl') 64bit
Writing library : libebml v1.3.4 + libmatroska v1.4.5

Video
ID : 1
Format : AVC
Format/Info : Advanced Video Codec
Format profile : High@L4.2
Format settings, CABAC : Yes
Format settings, ReFrames : 4 frames
Codec ID : V_MPEG4/ISO/AVC
Duration : 1 h 34 min
Bit rate : 14.0 Mb/s
Width : 1 920 pixels
Height : 1 040 pixels
Display aspect ratio : 1.85:1
Frame rate mode : Constant
Frame rate : 59.940 (59940/1000) FPS
Color space : YUV
Chroma subsampling : 4:2:0
Bit depth : 8 bits
Scan type : Progressive
Bits/(Pixel*Frame) : 0.117
Stream size : 9.11 GiB (74%)
Title : Despicable.Me.2010.1080p.BDRip.GTP.60FPS
Writing library : x264 core 146 r2538 121396c
Encoding settings : cabac=1 / ref=4 / deblock=1:0:0 / analyse=0x3:0x113 / me=umh / subme=9 / psy=1 / psy_rd=1.00:0.01 / mixed_ref=1 / me_range=32 / chroma_me=1 / trellis=2 / 8x8dct=1 / cqm=0 / deadzone=21,11 / fast_pskip=0 / chroma_qp_offset=-3 / threads=12 / lookahead_threads=3 / sliced_threads=0 / nr=0 / decimate=1 / interlaced=0 / bluray_compat=0 / constrained_intra=0 / bframes=16 / b_pyramid=2 / b_adapt=2 / b_bias=0 / direct=3 / weightb=1 / open_gop=0 / weightp=2 / keyint=600 / keyint_min=59 / scenecut=40 / intra_refresh=0 / rc_lookahead=40 / rc=2pass / mbtree=0 / bitrate=14000 / ratetol=1.0 / qcomp=0.60 / qpmin=0 / qpmax=69 / qpstep=4 / cplxblur=20.0 / qblur=0.5 / vbv_maxrate=14000 / vbv_bufsize=14000 / nal_hrd=none / filler=0 / ip_ratio=1.40 / pb_ratio=1.30 / aq=1:1.00
Language : English
Default : Yes
Forced : No

Audio #1
ID : 2
Format : DTS
Format/Info : Digital Theater Systems
Mode : 16
Format settings, Endianness : Big
Codec ID : A_DTS
Duration : 1 h 34 min
Bit rate mode : Constant
Bit rate : 768 kb/s
Channel(s) : 6 channels
Channel positions : Front: L C R, Side: L R, LFE
Sampling rate : 48.0 kHz
Frame rate : 93.750 FPS (512 spf)
Bit depth : 24 bits
Compression mode : Lossy
Stream size : 520 MiB (4%)
Title : Дубляж [BD CEE]
Language : Russian
Default : Yes
Forced : No

Audio #2
ID : 3
Format : DTS
Format/Info : Digital Theater Systems
Format profile : MA / Core
Mode : 16
Format settings, Endianness : Big
Codec ID : A_DTS
Duration : 1 h 34 min
Bit rate mode : Variable / Constant
Bit rate : 3 963 kb/s / 1 509 kb/s
Channel(s) : 6 channels
Channel positions : Front: L C R, Side: L R, LFE
Sampling rate : 48.0 kHz
Frame rate : 93.750 FPS (512 spf)
Bit depth : 24 bits
Compression mode : Lossless / Lossy
Stream size : 2.62 GiB (21%)
Title : Original
Language : English
Default : No
Forced : No

Text #1
ID : 4
Format : UTF-8
Codec ID : S_TEXT/UTF8
Codec ID/Info : UTF-8 Plain Text
Duration : 1 h 10 min
Bit rate : 2 b/s
Count of elements : 35
Stream size : 1.33 KiB (0%)
Title : Форсированные субтитры (только надписи)
Language : Russian
Default : Yes
Forced : No

Text #2
ID : 5
Format : UTF-8
Codec ID : S_TEXT/UTF8
Codec ID/Info : UTF-8 Plain Text
Duration : 1 h 28 min
Bit rate : 68 b/s
Count of elements : 972
Stream size : 44.6 KiB (0%)
Title : Полные субтитры [Евгений Воронин]
Language : Russian
Default : No
Forced : No

Menu
00:00:00.000 : :01. Global Panic
00:03:22.411 : :02. Meet Gru
00:06:31.891 : :03. Crime of the Century
00:12:05.099 : :04. Home for Girls
00:13:50.496 : :05. Bank of Evil
00:18:38.826 : :06. Shrink Ray Theft
00:23:06.844 : :07. Vector's Fortress
00:25:56.221 : :08. Adoption
00:30:40.839 : :09. Setting Some Rules
00:34:48.753 : :10. Top Secret
00:39:43.047 : :11. Pinky Promise
00:43:38.366 : :12. Cookiebots
00:48:19.188 : :13. Fun Land
00:52:52.502 : :14. Cotton Candy?
00:56:46.111 : :15. New Funding
01:02:08.016 : :16. Sleepy Kittens
01:09:23.868 : :17. To the Moon
01:16:25.456 : :18. Rescue
01:22:41.581 : :19. One Big Unicorn
01:27:35.375 : :20. End Titles
Гадкий я 2 / Despicable Me 2

pic="http://s010.radikal.ru/i312/1709/41/2b298bd4acf7.png"
Год выпуска: 2013
Страна: США
Жанр: мультфильм, комедия, семейный
Продолжительность: 01:37:59
Перевод: Дубляж (Лицензия)
Режиссер: Пьер Соффин, Крис Рено

В ролях:Стив Карелл, Кристен Уиг, Бенджамин Брэтт, Миранда Косгров, Расселл Брэнд, Кен Жонг, Стив Куган, Элси Фишер, Дэна Гайер, Мойзес Ариас

Описание: В то время как Грю, бывший суперзлодей, приспосабливается к семейной жизни и пытается честным трудом зарабатывать в сфере бизнеса, тайные лаборатории Арктики оказываются украденными. Анти-Злодейская лига решает, что она нуждается в помощи Грю и его новобранцев в расследовании.


Релиз группа:
Качество: BDRip 1080p 60FPS
Формат: mkv
Видео кодек: MPEG-4 AVC
Аудио кодек: DTS , AC3
Видео: 1920x1032 , 14.0 Mb/s , 59.940 fps
Аудио:
  • EN Audio #1 48.0 kHz , DTS , 3 840 kb/s
  • RUS Audio #2 48.0 kHz , DTS , 768 kb/s


Просьба к переливающим на другие сайты, в оформлении указывайте пожалуйста авторство группы GTP.RG
General
Unique ID : 221140258685866516491071455406928574219 (0xA65E108A5D26105E8FD4C8E7148E370B)
Complete name : F:\Торент\60fps\Despicable.Me.2.2013.1080p.BDRip.GTP.60FPS.mkv
Format : Matroska
Format version : Version 4 / Version 2
File size : 12.6 GiB
Duration : 1 h 37 min
Overall bit rate : 18.4 Mb/s
Movie name : Despicable.Me.2.2013.1080p.BDRip.GTP.60FPS
Encoded date : UTC 2017-09-26 09:48:33
Writing application : mkvmerge v9.4.0 ('Knurl') 64bit
Writing library : libebml v1.3.4 + libmatroska v1.4.5
Cover : Yes
Attachments : cover.png / cover.png

Video
ID : 1
Format : AVC
Format/Info : Advanced Video Codec
Format profile : High@L4.2
Format settings, CABAC : Yes
Format settings, RefFrames : 4 frames
Codec ID : V_MPEG4/ISO/AVC
Duration : 1 h 37 min
Bit rate : 14.0 Mb/s
Width : 1 920 pixels
Height : 1 032 pixels
Display aspect ratio : 1.85:1
Frame rate mode : Constant
Frame rate : 59.940 (59940/1000) FPS
Color space : YUV
Chroma subsampling : 4:2:0
Bit depth : 8 bits
Scan type : Progressive
Bits/(Pixel*Frame) : 0.118
Stream size : 9.49 GiB (75%)
Title : Despicable.Me.2.2013.1080p.BDRip.GTP.60FPS
Writing library : x264 core 146 r2538 121396c
Encoding settings : cabac=1 / ref=4 / deblock=1:0:0 / analyse=0x3:0x113 / me=umh / subme=9 / psy=1 / psy_rd=1.00:0.01 / mixed_ref=1 / me_range=32 / chroma_me=1 / trellis=2 / 8x8dct=1 / cqm=0 / deadzone=21,11 / fast_pskip=0 / chroma_qp_offset=-3 / threads=12 / lookahead_threads=3 / sliced_threads=0 / nr=0 / decimate=1 / interlaced=0 / bluray_compat=0 / constrained_intra=0 / bframes=16 / b_pyramid=2 / b_adapt=2 / b_bias=0 / direct=3 / weightb=1 / open_gop=0 / weightp=2 / keyint=600 / keyint_min=59 / scenecut=40 / intra_refresh=0 / rc_lookahead=40 / rc=2pass / mbtree=0 / bitrate=14000 / ratetol=1.0 / qcomp=0.60 / qpmin=0 / qpmax=69 / qpstep=4 / cplxblur=20.0 / qblur=0.5 / vbv_maxrate=14000 / vbv_bufsize=14000 / nal_hrd=none / filler=0 / ip_ratio=1.40 / pb_ratio=1.30 / aq=1:1.00
Language : English
Default : No
Forced : No

Audio #1
ID : 2
Format : DTS
Format/Info : Digital Theater Systems
Format profile : MA / Core
Mode : 16
Format settings, Endianness : Big
Codec ID : A_DTS
Duration : 1 h 37 min
Bit rate mode : Variable / Constant
Bit rate : 3 840 kb/s / 1 509 kb/s
Channel(s) : 6 channels
Channel positions : Front: L C R, Side: L R, LFE
Sampling rate : 48.0 kHz
Frame rate : 93.750 FPS (512 SPF)
Bit depth : 24 bits
Compression mode : Lossless / Lossy
Stream size : 2.58 GiB (20%)
Language : English
Default : No
Forced : No

Audio #2
ID : 3
Format : DTS
Format/Info : Digital Theater Systems
Mode : 16
Format settings, Endianness : Big
Codec ID : A_DTS
Duration : 1 h 37 min
Bit rate mode : Constant
Bit rate : 768 kb/s
Channel(s) : 6 channels
Channel positions : Front: L C R, Side: L R, LFE
Sampling rate : 48.0 kHz
Frame rate : 93.750 FPS (512 SPF)
Bit depth : 24 bits
Compression mode : Lossy
Stream size : 538 MiB (4%)
Language : Russian
Default : Yes
Forced : Yes
Гадкий я 3 / Despicable Me 3

pic="http://i057.radikal.ru/1709/c2/d8ed6730ef31.png"
Год выпуска: 2017
Страна: США
Жанр: мультфильм, комедия, семейный
Продолжительность: 01:29:49
Перевод: Дублированный | iTunes
Режиссер: Эрик Гуильон, Кайл Балда, Пьер Коффан

В ролях:Стив Карелл, Кристен Уиг, Трей Паркер, Миранда Косгров, Дэна Гайер, Пьер Коффан, Стив Кугэн, Джули Эндрюс, Дженни Слейт

Описание: Грядет третье пришествие. Многодетный суперагент, роковая красотка и бессмертные миньоны на подходе. Готовьтесь. Они будут править миром.


Релиз группа:
Качество: BDRip 1080p 60FPS
Формат: mkv
Видео кодек: MPEG-4 AVC
Аудио кодек: DTS , AC3
Видео: 1920x800 , 13.0 Mb/s , 59.940 fps
Аудио:
  • RUS 48 kHz, AC3, 5.1, 384 Kbps | Дублированный | iTunes
  • ENG Original 48 kHz, DTS-HD MA, 7.1, 3595 Kbps | Оригинал |


Просьба к переливающим на другие сайты, в оформлении указывайте пожалуйста авторство группы GTP.RG
General
Unique ID : 237500633942569544026449641829237933665 (0xB2ACF55151EB1257A946FB6D610A4661)
Complete name : F:\Торент\60fps\Despicable.Me.3.2017.BDRip.1080p.60fps.GTP.mkv
Format : Matroska
Format version : Version 4 / Version 2
File size : 10.6 GiB
Duration : 1 h 29 min
Overall bit rate : 17.0 Mb/s
Movie name : Despicable.Me.3.2017.BDRip.1080p.60fps.GTP
Encoded date : UTC 2017-09-26 10:03:33
Writing application : mkvmerge v9.4.0 ('Knurl') 64bit
Writing library : libebml v1.3.4 + libmatroska v1.4.5
Cover : Yes
Attachments : cover.png

Video
ID : 1
Format : AVC
Format/Info : Advanced Video Codec
Format profile : High@L4.2
Format settings, CABAC : Yes
Format settings, RefFrames : 4 frames
Codec ID : V_MPEG4/ISO/AVC
Duration : 1 h 29 min
Bit rate : 13.0 Mb/s
Width : 1 920 pixels
Height : 800 pixels
Display aspect ratio : 2.40:1
Frame rate mode : Constant
Frame rate : 59.940 (59940/1000) FPS
Color space : YUV
Chroma subsampling : 4:2:0
Bit depth : 8 bits
Scan type : Progressive
Bits/(Pixel*Frame) : 0.141
Stream size : 8.14 GiB (77%)
Writing library : x264 core 146 r2538 121396c
Encoding settings : cabac=1 / ref=4 / deblock=1:-1:-1 / analyse=0x3:0x113 / me=umh / subme=10 / psy=1 / psy_rd=1.00:0.10 / mixed_ref=1 / me_range=32 / chroma_me=1 / trellis=2 / 8x8dct=1 / cqm=0 / deadzone=21,11 / fast_pskip=0 / chroma_qp_offset=-3 / threads=12 / lookahead_threads=1 / sliced_threads=0 / nr=0 / decimate=1 / interlaced=0 / bluray_compat=0 / constrained_intra=0 / bframes=3 / b_pyramid=2 / b_adapt=2 / b_bias=0 / direct=3 / weightb=1 / open_gop=0 / weightp=2 / keyint=600 / keyint_min=59 / scenecut=40 / intra_refresh=0 / rc_lookahead=40 / rc=2pass / mbtree=0 / bitrate=13000 / ratetol=1.0 / qcomp=0.60 / qpmin=0 / qpmax=69 / qpstep=4 / cplxblur=20.0 / qblur=0.5 / vbv_maxrate=15000 / vbv_bufsize=17000 / nal_hrd=none / filler=0 / ip_ratio=1.40 / pb_ratio=1.30 / aq=1:1.00
Language : English
Default : Yes
Forced : No

Audio #1
ID : 2
Format : AC-3
Format/Info : Audio Coding 3
Format settings, Endianness : Big
Codec ID : A_AC3
Duration : 1 h 29 min
Bit rate mode : Constant
Bit rate : 384 kb/s
Channel(s) : 6 channels
Channel positions : Front: L C R, Side: L R, LFE
Sampling rate : 48.0 kHz
Frame rate : 31.250 FPS (1536 SPF)
Bit depth : 16 bits
Compression mode : Lossy
Delay relative to video : 8 s 635 ms
Stream size : 246 MiB (2%)
Title : iTunes
Language : Russian
Service kind : Complete Main
Default : Yes
Forced : No

Audio #2
ID : 3
Format : DTS
Format/Info : Digital Theater Systems
Format profile : X / MA / Core
Mode : 16
Format settings, Endianness : Big
Codec ID : A_DTS
Duration : 1 h 29 min
Bit rate mode : Variable / Variable / Constant
Bit rate : 3 595 kb/s / 3 595 kb/s / 1 509 kb/s
Channel(s) : Object Based / 8 channels / 6 channels
Channel positions : Object Based / Front: L C R, Side: L R, Back: L R, LFE / Front: L C R, Side: L R, LFE
Sampling rate : / 48.0 kHz / 48.0 kHz
Frame rate : 93.750 FPS (512 SPF)
Bit depth : / 24 bits / 24 bits
Compression mode : / Lossless / Lossy
Delay relative to video : 8 s 635 ms
Stream size : 2.25 GiB (21%)
Title : Original
Language : English
Default : No
Forced : No

Text
ID : 4
Format : UTF-8
Codec ID : S_TEXT/UTF8
Codec ID/Info : UTF-8 Plain Text
Duration : 1 h 21 min
Bit rate : 108 b/s
Count of elements : 1527
Stream size : 64.7 KiB (0%)
Title : SDH Colored
Language : English
Default : No
Forced : No

Menu
00:00:00.000 : en:00:00:00.000
00:03:06.103 : en:00:03:06.103
00:07:57.977 : en:00:07:57.977
00:11:12.839 : en:00:11:12.839
00:16:15.766 : en:00:16:15.766
00:20:07.498 : en:00:20:07.498
00:24:07.988 : en:00:24:07.988
00:28:57.069 : en:00:28:57.069
00:32:55.348 : en:00:32:55.348
00:39:01.839 : en:00:39:01.839
00:42:44.187 : en:00:42:44.187
00:46:47.179 : en:00:46:47.179
00:50:55.636 : en:00:50:55.636
00:56:12.077 : en:00:56:12.077
01:00:02.265 : en:01:00:02.265
01:05:41.229 : en:01:05:41.229
01:10:14.544 : en:01:10:14.544
01:14:33.761 : en:01:14:33.761
01:19:29.723 : en:01:19:29.723
01:21:56.995 : en:01:21:56.995
info [Профиль]  [ЛС] 

Bonart

Пол: Пол:Муж

Стаж: 7 лет 6 месяцев

Сообщений: 220

Южная Георгия и Южные Сандвичевы острова
Рейтинг

post 27-Сен-2017 23:52 (спустя 1 день 8 часов) [-]0[+]

[Цитировать] 

С каждой новой частью рейтинг все ниже...
И действительно, первую часть-то не превзошли по большому счету

_________________
info [Профиль]  [ЛС] 
Показать сообщения:    
Ответить на тему

Текущее время: 21-Окт 12:43

Часовой пояс: GMT + 4



Вы не можете начинать темы
Вы не можете отвечать на сообщения
Вы не можете редактировать свои сообщения
Вы не можете удалять свои сообщения
Вы не можете голосовать в опросах
Вы не можете прикреплять файлы к сообщениям
Вы не можете скачивать файлы