Ошибка

Гадкий я 3 / Despicable Me 3 (Пьер Соффин, Крис Рено) [2017 г., мультфильм, комедия, криминал, семейный, BDRip 720p] DUB | iTunes

Ответить на тему
 
Автор Сообщение

xohllenok

Пол: Пол:Муж

Стаж: 2 года 9 месяцев

Сообщений: 1171

Россия
Рейтинг

post 21-Сен-2017 06:29 0[+]

[Цитировать] 

Гадкий я 3 / Despicable Me 3
«Такие разные близнецы»

Год выпуска: 2017
Страна: США
Жанр: мультфильм, фантастика, боевик, комедия, приключения, семейный
Продолжительность: 01:29:40
Перевод: Дублированный [iTunes]
Субтитры: Английские
Режиссер: Эрик Гуильон, Кайл Балда, Пьер Коффан
Сценарий: Синко Пол, Кен Даурио
Продюсер: Джанет Хили, Бретт Хоффман, Кристофер Меледандри
Композитор: Эйтор Перейра, Фаррелл Уильямс
Монтаж: Клер Доджсон
В ролях: Стив Карелл (Gru / Dru, озвучка), Кристен Уиг (Lucy, озвучка), Трей Паркер (Balthazar Bratt, озвучка), Миранда Косгров (Margo, озвучка), Дэна Гайер (Edith, озвучка), Нев Шаррел (Agnes, озвучка), Пьер Коффан (Minions / Museum Director / Additional Voice, озвучка), Стив Куган (Fritz / Silas Ramsbottom, озвучка), Джули Эндрюс (Gru's Mom, озвучка), Дженни Слейт (Valerie Da Vinci, озвучка), Майкл Битти (TV Show Host / Scar-Faced Man, озвучка), Энди Найман (Clive the Robot, озвучка)



Описание: Грядет третье пришествие. Многодетный суперагент, роковая красотка и бессмертные миньоны на подходе. Готовьтесь. Они будут править миром.


Качество: BDRip 720p
Формат: MKV
Видео кодек: AVC
Аудио кодек: AC3
Видео: 1280x536 (2.40:1), 23.976 fps, AVC, 4 700 Kbps
Аудио: Аудио #1: AC3, 384 Kbps, 48.0 KHz, 6 ch [Rus]
Аудио #2: AC3, 640 Kbps, 48.0 KHz, 6 ch [Eng]

Код:

General
Unique ID                                : 210632921115014170881971748108415283828 (0x9E766CCD1F46FA9783C47955B8A43274)
Complete name                            : Despicable.Me.3.2017.BDRip.720p.ExKinoRay.mkv
Format                                   : Matroska
Format version                           : Version 4 / Version 2
File size                                : 3.58 GiB
Duration                                 : 1h 29mn
Overall bit rate                         : 5 721 Kbps
Encoded date                             : UTC 2017-09-20 18:36:55
Writing application                      : mkvmerge v15.0.0 ('Duel with the Devil') 64-bit
Writing library                          : libebml v1.3.5 + libmatroska v1.4.5

Video
ID                                       : 1
Format                                   : AVC
Format/Info                              : Advanced Video Codec
Format profile                           : High@L4.1
Format settings, CABAC                   : Yes
Format settings, ReFrames                : 12 frames
Codec ID                                 : V_MPEG4/ISO/AVC
Duration                                 : 1h 29mn
Bit rate                                 : 4 700 Kbps
Width                                    : 1 280 pixels
Height                                   : 536 pixels
Display aspect ratio                     : 2.40:1
Frame rate mode                          : Constant
Frame rate                               : 23.976 fps
Color space                              : YUV
Chroma subsampling                       : 4:2:0
Bit depth                                : 8 bits
Scan type                                : Progressive
Bits/(Pixel*Frame)                       : 0.286
Stream size                              : 2.87 GiB (80%)
Writing library                          : x264 core 148 r2705 3f5ed56
Encoding settings                        : cabac=1 / ref=12 / deblock=1:-3:-3 / analyse=0x3:0x133 / me=umh / subme=10 / psy=1 / psy_rd=1.05:0.05 / mixed_ref=1 / me_range=32 / chroma_me=1 / trellis=2 / 8x8dct=1 / cqm=0 / deadzone=21,11 / fast_pskip=0 / chroma_qp_offset=-3 / threads=12 / lookahead_threads=2 / sliced_threads=0 / nr=0 / decimate=0 / interlaced=0 / bluray_compat=0 / constrained_intra=0 / bframes=8 / b_pyramid=2 / b_adapt=2 / b_bias=0 / direct=3 / weightb=1 / open_gop=0 / weightp=2 / keyint=240 / keyint_min=23 / scenecut=40 / intra_refresh=0 / rc_lookahead=50 / rc=2pass / mbtree=0 / bitrate=4700 / ratetol=1.0 / qcomp=0.60 / qpmin=0 / qpmax=69 / qpstep=4 / cplxblur=20.0 / qblur=0.5 / vbv_maxrate=50000 / vbv_bufsize=62500 / nal_hrd=none / filler=0 / ip_ratio=1.40 / pb_ratio=1.30 / aq=3:0.80
Language                                 : English
Default                                  : Yes
Forced                                   : No

Audio #1
ID                                       : 2
Format                                   : AC-3
Format/Info                              : Audio Coding 3
Mode extension                           : CM (complete main)
Format settings, Endianness              : Big
Codec ID                                 : A_AC3
Duration                                 : 1h 29mn
Bit rate mode                            : Constant
Bit rate                                 : 384 Kbps
Channel(s)                               : 6 channels
Channel positions                        : Front: L C R, Side: L R, LFE
Sampling rate                            : 48.0 KHz
Bit depth                                : 16 bits
Compression mode                         : Lossy
Stream size                              : 246 MiB (7%)
Title                                    : iTunes
Language                                 : Russian
Default                                  : Yes
Forced                                   : No

Audio #2
ID                                       : 3
Format                                   : AC-3
Format/Info                              : Audio Coding 3
Mode extension                           : CM (complete main)
Format settings, Endianness              : Big
Codec ID                                 : A_AC3
Duration                                 : 1h 29mn
Bit rate mode                            : Constant
Bit rate                                 : 640 Kbps
Channel(s)                               : 6 channels
Channel positions                        : Front: L C R, Side: L R, LFE
Sampling rate                            : 48.0 KHz
Bit depth                                : 16 bits
Compression mode                         : Lossy
Stream size                              : 411 MiB (11%)
Title                                    : Original
Language                                 : English
Default                                  : No
Forced                                   : No

Text
ID                                       : 4
Format                                   : UTF-8
Codec ID                                 : S_TEXT/UTF8
Codec ID/Info                            : UTF-8 Plain Text
Title                                    : SDH Colored
Language                                 : English
Default                                  : No
Forced                                   : No

Menu
00:00:00.000                             : en:00:00:00.000
00:03:06.103                             : en:00:03:06.103
00:07:57.977                             : en:00:07:57.977
00:11:12.839                             : en:00:11:12.839
00:16:15.766                             : en:00:16:15.766
00:20:07.498                             : en:00:20:07.498
00:24:07.988                             : en:00:24:07.988
00:28:57.069                             : en:00:28:57.069
00:32:55.348                             : en:00:32:55.348
00:39:01.839                             : en:00:39:01.839
00:42:44.187                             : en:00:42:44.187
00:46:47.179                             : en:00:46:47.179
00:50:55.636                             : en:00:50:55.636
00:56:12.077                             : en:00:56:12.077
01:00:02.265                             : en:01:00:02.265
01:05:41.229                             : en:01:05:41.229
01:10:14.544                             : en:01:10:14.544
01:14:33.761                             : en:01:14:33.761
01:19:29.723                             : en:01:19:29.723
01:21:56.995                             : en:01:21:56.995

★ Стив Карелл заявил, что «Гадкий я 3» может оказаться последним фильмом, в котором он озвучивает Грю. Актёр, правда, добавил, что не против озвучить этот персонаж в последующих сиквелах, но только в эпизодической роли.

★ Озвучившую Агнес актрису Элси Фишер заменила Nev Scharrel, так как с возрастом у Фишер изменился голос.

★ Фильм снят в анаморфированном формате «Синемаскоп» (соотношение сторон экрана 2,35:1).

★ В мультфильме 2013 года «Гадкия я 2» злодея озвучил актёр по имени Бенджамин Брэтт. В этом фильме Балтазаром Брэттом зовут самого злодея.

★ Антагонистом в фильме является Бальтазар Брэтт. До него антагонистами в фильмах франшизы «Гадкий я» были Скарлет Оверкилл, говорившая голосом Сандры Буллок, Вектор, которого озвучил Джейсон Сигел, и Эль Мачо, озвученный Бенджамином Брэттом.

Бюджет: $80 000 000
Сборы в США: $261 143 400
Сборы в мире: + $754 332 355 = $1 015 475 755
Сборы в России: $26 924 655
Зрители: Россия 7.56 млн
Премьера (мир): 14 июня 2017
Премьера (РФ): 29 июня 2017
Рейтинг MPAA: Рекомендуется присутствие родителей

          



© Оформление by Xohllenok for http://tapochek.net


info [Профиль]  [ЛС] 
Показать сообщения:    
Ответить на тему

Текущее время: 14-Дек 10:11

Часовой пояс: GMT + 4



Вы не можете начинать темы
Вы не можете отвечать на сообщения
Вы не можете редактировать свои сообщения
Вы не можете удалять свои сообщения
Вы не можете голосовать в опросах
Вы не можете прикреплять файлы к сообщениям
Вы не можете скачивать файлы