Ошибка
Загрузка...

Рик и Морти | Rick and Morty (2-ой сезон, 1-10 серии из 10) (Пит Мишелс, Брайан Ньютон, Джон Райс) [2014 г., мультфильм, комедия, фантастика, BDRip, 720p]

Ответить на тему
 
Автор Сообщение

SkyLeR

Пол: Пол:Муж

Стаж: 8 лет 4 месяца

Сообщений: 1141

Россия
Рейтинг

post 20-Сен-2017 00:29 1[+]

[Цитировать] 

Рик и Морти | Rick and Morty
«Science makes sense, family doesn't.»

Оригинальное название: Rick and Morty
Год выпуска: 2014
Страна: США
Жанр: мультфильм, комедия, фантастика
Продолжительность: ~00:20:00
Перевод:
Одноголосый, закадровый / Сыендук
Оригинал
Субтитры: Русские, Английские
Режиссер: Пит Мишелс, Брайан Ньютон, Джон Райс
В ролях: Джастин Ройланд, Крис Парнелл, Спенсер Грэммер, Сара Чок, Кари Уолгрен, Райан Ридли, Том Кенни, Морис ЛаМарш, Фил Хендри, Брэндон Джонсон
Описание:
Учёный-социопат вовлекает своего невинного внука в опасные межпространственные приключения.
Качество: BDRip 720p
Формат: MKV
Видео: 1280x720 at 23.976 fps, AVC, ~2500 kbps avg
Аудио: 48 kHz/16-bit, AC3 5.1, ~640.00 kbps avg |Одноголосый закадровый, Сыендук|
Аудио 2: 48 kHz/16-bit, AC3 5.1, ~640.00 kbps avg
Аудио 3: 48 kHz, AC3, 2/0 (L,R) ch, ~192.00 kbps avg |Creator and Animator Audio Commentaries|
Аудио 4: 48 kHz, AC3, 2/0 (L,R) ch, ~192.00 kbps avg |Special Guest Commentaries (6,8 и 10 серии)|
1. The Wedding Squanchers
2. Look Who's Purging Now
3. Interdimensional Cable 2: Tempting Fate
4. Big Trouble In Little Sanchez
5. The Ricks Must Be Crazy
6. Get Schwifty
7. Total Rickall
8. Auto Erotic Assimilation
9. Mortynight Run
10. A Rickle In Time
General
Unique ID : 181042803602164418258412127350234790281 (0x8833935EEF03D9478B3D8CF7E0FFB989)
Complete name : D:\Torrents\Rick.and.Morty.S02.720p.BDRip\Rick.and.Morty.S02E03.Auto.Erotic.Assimilation.720p.mkv
Format : Matroska
Format version : Version 4 / Version 2
File size : 565 MiB
Duration : 22 min 58 s
Overall bit rate : 3 439 kb/s
Movie name : Рик и Морти / Rick and Morty (2015) S02E03 Аутоэротическая ассимиляция / Auto Erotic Assimilation
Encoded date : UTC 2016-08-06 10:27:07
Writing application : mkvmerge v9.3.1 ('Mask Machine') 64bit
Writing library : libebml v1.3.4 + libmatroska v1.4.5
Cover : Yes
Attachments : cover.jpg

Video
ID : 1
Format : AVC
Format/Info : Advanced Video Codec
Format profile : High@L4.1
Format settings, CABAC : Yes
Format settings, RefFrames : 9 frames
Codec ID : V_MPEG4/ISO/AVC
Duration : 22 min 58 s
Bit rate : 1 898 kb/s
Width : 1 280 pixels
Height : 720 pixels
Display aspect ratio : 16:9
Frame rate mode : Constant
Frame rate : 23.976 (24000/1001) FPS
Color space : YUV
Chroma subsampling : 4:2:0
Bit depth : 8 bits
Scan type : Progressive
Bits/(Pixel*Frame) : 0.086
Stream size : 312 MiB (55%)
Title : MPEG-4 AVC @ ~2000 kbps - NTb
Writing library : x264 core 148 r2692kMod 64f4e24
Encoding settings : cabac=1 / ref=9 / deblock=1:-2:-1 / analyse=0x3:0x133 / me=umh / subme=10 / psy=1 / fade_compensate=0.00 / psy_rd=0.50:0.00 / mixed_ref=1 / me_range=32 / chroma_me=1 / trellis=2 / 8x8dct=1 / cqm=0 / deadzone=21,11 / fast_pskip=1 / chroma_qp_offset=-2 / threads=12 / lookahead_threads=2 / sliced_threads=0 / nr=0 / decimate=1 / interlaced=0 / bluray_compat=0 / constrained_intra=0 / fgo=0 / bframes=8 / b_pyramid=2 / b_adapt=2 / b_bias=0 / direct=3 / weightb=1 / open_gop=0 / weightp=2 / keyint=250 / keyint_min=23 / scenecut=40 / intra_refresh=0 / rc=crf / mbtree=0 / crf=16.5000 / qcomp=0.60 / qpmin=0 / qpmax=69 / qpstep=4 / ip_ratio=1.30 / pb_ratio=1.20 / aq=3:0.50
Language : English
Default : Yes
Forced : No

Audio #1
ID : 2
Format : AC-3
Format/Info : Audio Coding 3
Format settings, Endianness : Big
Codec ID : A_AC3
Duration : 22 min 58 s
Bit rate mode : Constant
Bit rate : 640 kb/s
Channel(s) : 6 channels
Channel positions : Front: L C R, Side: L R, LFE
Sampling rate : 48.0 kHz
Frame rate : 31.250 FPS (1536 SPF)
Bit depth : 16 bits
Compression mode : Lossy
Stream size : 105 MiB (19%)
Title : AC3 5.1 @ 640 Kbps - Одноголосый закадровый, Сыендук
Language : Russian
Service kind : Complete Main
Default : Yes
Forced : No

Audio #2
ID : 3
Format : AC-3
Format/Info : Audio Coding 3
Format settings, Endianness : Big
Codec ID : A_AC3
Duration : 22 min 58 s
Bit rate mode : Constant
Bit rate : 640 kb/s
Channel(s) : 6 channels
Channel positions : Front: L C R, Side: L R, LFE
Sampling rate : 48.0 kHz
Frame rate : 31.250 FPS (1536 SPF)
Bit depth : 16 bits
Compression mode : Lossy
Stream size : 105 MiB (19%)
Title : AC3 5.1 @ 640 Kbps
Language : English
Service kind : Complete Main
Default : No
Forced : No

Audio #3
ID : 4
Format : AC-3
Format/Info : Audio Coding 3
Format settings, Endianness : Big
Codec ID : A_AC3
Duration : 22 min 58 s
Bit rate mode : Constant
Bit rate : 192 kb/s
Channel(s) : 2 channels
Channel positions : Front: L R
Sampling rate : 48.0 kHz
Frame rate : 31.250 FPS (1536 SPF)
Bit depth : 16 bits
Compression mode : Lossy
Stream size : 31.6 MiB (6%)
Title : AC3 2.0 @ 192 Kbps - Commentary with Dan Harmon, Justin Roiland, Ryan Ridley and Dan Guterman
Language : English
Service kind : Complete Main
Default : No
Forced : No

Text #1
ID : 5
Format : UTF-8
Codec ID : S_TEXT/UTF8
Codec ID/Info : UTF-8 Plain Text
Title : SRT - Full
Language : Russian
Default : No
Forced : No

Text #2
ID : 6
Format : UTF-8
Codec ID : S_TEXT/UTF8
Codec ID/Info : UTF-8 Plain Text
Title : SRT - Full
Language : English
Default : No
Forced : No

Text #3
ID : 7
Format : UTF-8
Codec ID : S_TEXT/UTF8
Codec ID/Info : UTF-8 Plain Text
Title : SRT - Full SDH
Language : English
Default : No
Forced : No

Menu
00:00:00.000 : en:Chapter 1
00:01:50.068 : en:Chapter 2
00:11:19.554 : en:Chapter 3
00:21:33.918 : en:Chapter 4
00:22:04.114 : en:Chapter 5
info [Профиль]  [ЛС] 

SkyLeR

Пол: Пол:Муж

Стаж: 8 лет 4 месяца

Сообщений: 1141

Россия
Рейтинг

post 20-Сен-2017 00:35 (спустя 5 минут) [-]3[+]

[Цитировать] 

На данный момент в третьем сезоне 8 серий (из 10). Залью завтра.
info [Профиль]  [ЛС] 

doctorx52

Пол: Пол:Муж

Стаж: 7 лет 3 месяца

Сообщений: 751

Россия
Рейтинг

post 20-Сен-2017 14:00 (спустя 13 часов) [-]5[+]

[Цитировать] 

шикарный мульт ))) а от сыендука перевод вообще каеф)

_________________
люблю ведьмака ! геральд из ривии ты лучший
info [Профиль]  [ЛС] 
Показать сообщения:    
Ответить на тему

Текущее время: 22-Окт 05:13

Часовой пояс: GMT + 4



Вы не можете начинать темы
Вы не можете отвечать на сообщения
Вы не можете редактировать свои сообщения
Вы не можете удалять свои сообщения
Вы не можете голосовать в опросах
Вы не можете прикреплять файлы к сообщениям
Вы не можете скачивать файлы