Ошибка

Подводная эра / Deep (Джулио Сото Гарпид) [2017, мультфильм, комедия, приключения, семейный, WEB-DL 1080p]

Ответить на тему
 
Автор Сообщение

BZzz

Пол: Пол:Муж

Стаж: 6 лет 2 месяца

Сообщений: 3963

Россия
Рейтинг

post 04-Сен-2017 00:23 0[+]

[Цитировать] 

Подводная эра / Deep
-




Год выпуска: 2017
Страна: США , Испания , Бельгия
Жанр: мультфильм, комедия, приключения, семейный
Продолжительность: 01:28:24
Перевод: Профессиональный (дублированный)(русский, украинский)[цифровая лицензия iTunes]

Режиссер: Джулио Сото Гарпид

В ролях: Джастин Фелбингер☆Justin Felbinger (Deep, озвучка), Линдси Алена☆Lindsey Alena (Alice, озвучка), Стивен Хьюз☆Stephen Hughes (в титрах: Stephen Erza Hughes) (Evo, озвучка), Льюис Маклауд☆Lewis Macleod (Nathan, озвучка), Джесс Харнелл☆Jess Harnell , Фил ЛаМарр☆Phil LaMarr , Джефф Беннетт☆Jeff Bennett , Дэйв Фенной☆Dave Fennoy , Боб Берген☆Bob Bergen , Джен Тейлор☆Jen Taylor (Computer, озвучка)


Описание: К 2100 году люди покинули нашу планету. Но в глубокой впадине на самом дне океана продолжает жить колония удивительных морских существ. Среди них любопытный глубоководный осьминожек Дип и двое его друзей — пугливый удильщик Иво и импульсивная креветка Элис. Однако, когда их дому угрожает опасность, мудрый дедушка Дипа, гигантский осьминог Кракен, отправляет их за помощью на другой конец океана. Друзей и присоединившуюся к ним стеснительную мурену Мойру ждет целое море опасных и невероятных приключений…

Сборы в России: $1 643 682
Рейтинг MPAA: Рекомендуется присутствие родителей



Качество: WEB-DL 1080p
Формат: MKV
Видео кодек: AVC
Аудио кодек: AC3
Видео: 1920x1038 (1.85:1), 25.000 fps, High@L4.0, 5 012 Kbps
Аудио #1: Rus AC3, 384 Kbps, 48.0 KHz, 6 ch
Аудио #2: Ukr AC3, 384 Kbps, 48.0 KHz, 6 ch

» Осьминоги вида гримпотевтис, представителем которого является главный герой Дип, в дикой природе обитают на глубинах океана и были обнаружены даже на глубине 7 000 метров. Обычно в зрелом возрасте эти осьминоги достигают в длину 20 сантиметров, однако самый большой когда-либо зарегистрированный представитель этого рода был в длину около 180 сантиметров и весил около 6 килограммов. Помимо научного названия этот вид осьминога также именуется дамбо — благодаря образованиям на голове в виде ушей слоненка из одноименного мультфильма Диснея.

» Рыба-удильщик Иво свое название получила благодаря светящейся «удочке с приманкой», которая представляет собой отросток на голове. Еще его называют «морским чертом». Он заманивает свою жертву удлиненным спинным позвоночником, изгибая его вокруг приманки, тогда как конец позвоночника светится, чтобы привлечь ничего не подозревающую рыбу к своему рту и острым зубам. Их рот настолько большой, а тело настолько гибкое, что они могут поглотить добычу, которая в два раза больше их самих.

» В мультфильме креветка Элис неспроста показана весьма импульсивной особой. В реальном животном мире креветка — самое шумное существо в океане. Шум большой стаи креветок способен «ослепить» сонар подводной лодки.
General
Unique ID : 183833984092869186168009116946514346455 (0x8A4D2331A153143BADB6B061054C81D7)
Complete name : Deep.2017.D.WEB-DL.1080p.mkv
Format : Matroska
Format version : Version 4 / Version 2
File size : 3.64 GiB
Duration : 1h 28mn
Overall bit rate : 5 897 Kbps
Encoded date : UTC 2017-09-03 10:10:48
Writing application : mkvmerge v15.0.0 ('Duel with the Devil') 64-bit
Writing library : libebml v1.3.5 + libmatroska v1.4.5

Video
ID : 1
Format : AVC
Format/Info : Advanced Video Codec
Format profile : High@L4.0
Format settings, CABAC : Yes
Format settings, ReFrames : 4 frames
Codec ID : V_MPEG4/ISO/AVC
Duration : 1h 28mn
Bit rate : 5 012 Kbps
Width : 1 920 pixels
Height : 1 038 pixels
Display aspect ratio : 1.85:1
Frame rate mode : Constant
Frame rate : 25.000 fps
Color space : YUV
Chroma subsampling : 4:2:0
Bit depth : 8 bits
Scan type : Progressive
Bits/(Pixel*Frame) : 0.101
Stream size : 3.09 GiB (85%)
Title : iTunes
Language : English
Default : Yes
Forced : No
Color primaries : BT.709
Transfer characteristics : BT.709
Matrix coefficients : BT.709

Audio #1
ID : 2
Format : AC-3
Format/Info : Audio Coding 3
Mode extension : CM (complete main)
Format settings, Endianness : Big
Codec ID : A_AC3
Duration : 1h 28mn
Bit rate mode : Constant
Bit rate : 384 Kbps
Channel(s) : 6 channels
Channel positions : Front: L C R, Side: L R, LFE
Sampling rate : 48.0 KHz
Bit depth : 16 bits
Compression mode : Lossy
Stream size : 243 MiB (7%)
Title : DUB
Language : Russian
Default : Yes
Forced : No

Audio #2
ID : 3
Format : AC-3
Format/Info : Audio Coding 3
Mode extension : CM (complete main)
Format settings, Endianness : Big
Codec ID : A_AC3
Duration : 1h 28mn
Bit rate mode : Constant
Bit rate : 384 Kbps
Channel(s) : 6 channels
Channel positions : Front: L C R, Side: L R, LFE
Sampling rate : 48.0 KHz
Bit depth : 16 bits
Compression mode : Lossy
Stream size : 243 MiB (7%)
Title : DUB
Language : Ukrainian
Default : No
Forced : No

Menu
00:00:00.000 : en:Глава 1
00:05:41.880 : en:Глава 2
00:11:01.120 : en:Глава 3
00:18:19.840 : en:Глава 4
00:27:12.000 : en:Глава 5
00:31:56.520 : en:Глава 6
00:38:11.720 : en:Глава 7
00:44:39.840 : en:Глава 8
00:49:54.080 : en:Глава 9
00:56:12.320 : en:Глава 10
01:02:46.080 : en:Глава 11
01:08:17.120 : en:Глава 12
01:14:39.920 : en:Глава 13
info [Профиль]  [ЛС] 

tooday1

Пол: Пол:Муж

Стаж: 5 лет 3 месяца

Сообщений: 240

Предупреждений: 3

Рейтинг

post 04-Сен-2017 03:58 (спустя 3 часа) [-]0[+]

[Цитировать] 

(К 2100 году люди покинули нашу планету) "крайне сомневаюсь что так скор это произойдет" , скорее покинут этот мир))) .

_________________
Сижу читаю то что писал раньше и понимаю какой я был дурак...и самое страшное то что потом я буду так же думать про то что пишу сейчас..
info [Профиль]  [ЛС] 

Valiumde

Пол: Пол:Муж

Стаж: 5 лет

Сообщений: 11

Россия
Рейтинг

post 04-Сен-2017 20:23 (спустя 16 часов) [-]0[+]

[Цитировать] 

kolob_107

tooday1 писал(а):

(К 2100 году люди покинули нашу планету) "крайне сомневаюсь что так скор это произойдет" , скорее покинут этот мир))) .
info [Профиль]  [ЛС] 

YaLAS

Пол: Пол:Муж

Стаж: 8 лет 4 месяца

Сообщений: 65

Украина
Рейтинг

post 06-Сен-2017 20:36 (спустя 2 дня) [-]-1[+]

[Цитировать] 

Чью это "вашу"? К кому относит себя автор, противопоставляя себя людям?

_________________
Труд сделал из обезьяны человека, а лень - из человека программиста.
info [Профиль]  [ЛС] 

leporel

Пол: Пол:Муж

Стаж: 8 лет 9 месяцев

Сообщений: 163

Россия
Рейтинг

post 09-Сен-2017 20:30 (спустя 2 дня 23 часа) [-]-1[+]

[Цитировать] 

YaLAS
Автор рептилойд, очевидно же.
info [Профиль]  [ЛС] 

argentum1

Пол: Пол:Муж

Стаж: 4 года 11 месяцев

Сообщений: 17

Россия
Рейтинг

post 29-Сен-2017 00:00 (спустя 19 дней) [-]0[+]

[Цитировать] 

звуковая дорожка спешит со скоростью света!!!
info [Профиль]  [ЛС] 

BZzz

Пол: Пол:Муж

Стаж: 6 лет 2 месяца

Сообщений: 3963

Россия
Рейтинг

post 29-Сен-2017 00:59 (спустя 58 минут) [-]0[+]

[Цитировать] 

argentum1 писал(а):

звуковая дорожка спешит со скоростью света!!!
Вы, для начала, скачать пробовали этот релиз?
Я вижу, что у вас скачана другая раздача.

_________________
info [Профиль]  [ЛС] 

DENZEL519

Пол: Пол:Муж

Стаж: 6 лет 6 месяцев

Сообщений: 1414

СССР
Рейтинг

post 29-Сен-2017 01:13 (спустя 14 минут) [-]0[+]

[Цитировать] 

Да и в той раздаче уже давно убран рассинхрон.
info [Профиль]  [ЛС] 

argentum1

Пол: Пол:Муж

Стаж: 4 года 11 месяцев

Сообщений: 17

Россия
Рейтинг

post 29-Сен-2017 16:52 (спустя 15 часов) [-]0[+]

[Цитировать] 

BZzz писал(а):

argentum1 писал(а):

звуковая дорожка спешит со скоростью света!!!
Вы, для начала, скачать пробовали этот релиз?
Я вижу, что у вас скачана другая раздача.
спасибо. скачал просто давно а посмотреть решился вчера. приношу извинения.
info [Профиль]  [ЛС] 
Показать сообщения:    
Ответить на тему

Текущее время: 24-Янв 02:13

Часовой пояс: GMT + 4



Вы не можете начинать темы
Вы не можете отвечать на сообщения
Вы не можете редактировать свои сообщения
Вы не можете удалять свои сообщения
Вы не можете голосовать в опросах
Вы не можете прикреплять файлы к сообщениям
Вы не можете скачивать файлы