Ошибка

Подводная эра / Deep (Джулио Сото Гарпид) [2017, мультфильм, комедия, приключения, семейный, WEB-DL 720p] [iTunes]

Ответить на тему
 
Автор Сообщение

DENZEL519

Пол: Пол:Муж

Стаж: 6 лет 6 месяцев

Сообщений: 1412

СССР
Рейтинг

post 02-Сен-2017 20:53 2[+]

[Цитировать] 

Подводная эра / Deep
-

Год выпуска: 2017
Страна: США , Испания , Бельгия
Жанр: мультфильм, комедия, приключения, семейный
Продолжительность: 01:32:38
Перевод: Дублированный [iTunes]
Субтитры: Нет
Режиссер: Джулио Сото Гарпид
Сценарий: Джулио Сото Гарпид, Хосе Татаи, Джо Витейл
Продюсер: Адриана Мальфатти Чен, Адриан Политовски, Карл Ричардс
Композитор: Фернандо Веласкес
Художник: Эстефания Пантойя
В ролях: Джастин Фелбингер (Deep, озвучка), Линдси Алена (Alice, озвучка), Стивен Хьюз (Evo, озвучка), Льюис Маклауд (Nathan, озвучка), Джесс Харнелл , Фил ЛаМарр , Джефф Беннетт , Дэйв Фенной , Боб Берген , Джен Тейлор (Computer, озвучка), Уильям Салиерс , Анна Вочино



Описание: К 2100 году люди покинули нашу планету. Но в глубокой впадине на самом дне океана продолжает жить колония удивительных морских существ. Среди них любопытный глубоководный осьминожек Дип и двое его друзей — пугливый удильщик Иво и импульсивная креветка Элис. Однако, когда их дому угрожает опасность, мудрый дедушка Дипа, гигантский осьминог Кракен, отправляет их за помощью на другой конец океана. Друзей и присоединившуюся к ним стеснительную мурену Мойру ждет целое море опасных и невероятных приключений…


Качество: WEB-DL 720p
Формат: MKV
Видео кодек: AVC
Аудио кодек: AC3
Видео: 1280x688 (1.85:1), 23.976 fps, AVC, 3 951 Kbps
Аудио: Аудио #1: AC3, 384 Kbps, 48.0 KHz, 6 ch [Rus]
Аудио #2: AC3, 384 Kbps, 48.0 KHz, 6 ch [Eng]


Код:

General
Unique ID                                : 171559486108194207500342123688400481698 (0x811127B82B42B9FA9019EC91E90B6DA2)
Complete name                            : p0dB0dHaYa.3Pa.2017.D.WeB-DL.720p.mkv
Format                                   : Matroska
Format version                           : Version 2
File size                                : 3.12 GiB
Duration                                 : 1h 32mn
Overall bit rate                         : 4 815 Kbps
Movie name                               : EVO
Encoded date                             : UTC 2017-09-03 16:55:14
Writing application                      : mkvmerge v8.3.0 ('Over the Horizon') 64bit
Writing library                          : libebml v1.3.1 + libmatroska v1.4.2
DURATION                                 : 01:32:38.592000000
NUMBER_OF_FRAMES                         : 173706
NUMBER_OF_BYTES                          : 266812416
_STATISTICS_WRITING_APP                  : mkvmerge v8.3.0 ('Over the Horizon') 64bit
_STATISTICS_WRITING_DATE_UTC             : 2017-09-03 16:55:14
_STATISTICS_TAGS                         : BPS DURATION NUMBER_OF_FRAMES NUMBER_OF_BYTES

Video
ID                                       : 1
Format                                   : AVC
Format/Info                              : Advanced Video Codec
Format profile                           : High@L3.1
Format settings, CABAC                   : No
Format settings, ReFrames                : 2 frames
Codec ID                                 : V_MPEG4/ISO/AVC
Duration                                 : 1h 32mn
Bit rate                                 : 3 951 Kbps
Width                                    : 1 280 pixels
Height                                   : 688 pixels
Display aspect ratio                     : 1.85:1
Frame rate mode                          : Constant
Frame rate                               : 23.976 fps
Color space                              : YUV
Chroma subsampling                       : 4:2:0
Bit depth                                : 8 bits
Scan type                                : Progressive
Bits/(Pixel*Frame)                       : 0.187
Stream size                              : 2.56 GiB (82%)
Language                                 : English
Default                                  : Yes
Forced                                   : No
Color primaries                          : BT.709
Transfer characteristics                 : BT.709
Matrix coefficients                      : BT.709

Audio #1
ID                                       : 2
Format                                   : AC-3
Format/Info                              : Audio Coding 3
Mode extension                           : CM (complete main)
Format settings, Endianness              : Big
Codec ID                                 : A_AC3
Duration                                 : 1h 32mn
Bit rate mode                            : Constant
Bit rate                                 : 384 Kbps
Channel(s)                               : 6 channels
Channel positions                        : Front: L C R, Side: L R, LFE
Sampling rate                            : 48.0 KHz
Bit depth                                : 16 bits
Compression mode                         : Lossy
Stream size                              : 254 MiB (8%)
Language                                 : Russian
Default                                  : Yes
Forced                                   : No

Audio #2
ID                                       : 3
Format                                   : AC-3
Format/Info                              : Audio Coding 3
Mode extension                           : CM (complete main)
Format settings, Endianness              : Big
Codec ID                                 : A_AC3
Duration                                 : 1h 32mn
Bit rate mode                            : Constant
Bit rate                                 : 384 Kbps
Channel(s)                               : 6 channels
Channel positions                        : Front: L C R, Side: L R, LFE
Sampling rate                            : 48.0 KHz
Bit depth                                : 16 bits
Compression mode                         : Lossy
Stream size                              : 254 MiB (8%)
Language                                 : English
Default                                  : No
Forced                                   : No

Menu
00:00:00.000                             : en:1
00:02:02.000                             : en:2
00:11:58.000                             : en:3
00:20:08.000                             : en:4
00:28:34.000                             : en:5
00:38:03.000                             : en:6
00:47:03.000                             : en:7
00:57:09.000                             : en:8
01:05:55.000                             : en:9
01:15:23.000                             : en:10
01:27:22.000                             : en:11

» Осьминоги вида гримпотевтис, представителем которого является главный герой Дип, в дикой природе обитают на глубинах океана и были обнаружены даже на глубине 7 000 метров. Обычно в зрелом возрасте эти осьминоги достигают в длину 20 сантиметров, однако самый большой когда-либо зарегистрированный представитель этого рода был в длину около 180 сантиметров и весил около 6 килограммов. Помимо научного названия этот вид осьминога также именуется дамбо — благодаря образованиям на голове в виде ушей слоненка из одноименного мультфильма Диснея.

» Рыба-удильщик Иво свое название получила благодаря светящейся «удочке с приманкой», которая представляет собой отросток на голове. Еще его называют «морским чертом». Он заманивает свою жертву удлиненным спинным позвоночником, изгибая его вокруг приманки, тогда как конец позвоночника светится, чтобы привлечь ничего не подозревающую рыбу к своему рту и острым зубам. Их рот настолько большой, а тело настолько гибкое, что они могут поглотить добычу, которая в два раза больше их самих.

» В мультфильме креветка Элис неспроста показана весьма импульсивной особой. В реальном животном мире креветка — самое шумное существо в океане. Шум большой стаи креветок способен «ослепить» сонар подводной лодки.

Сборы в России: $1 643 682
Зрители: Россия 586.7 тыс.
Премьера (мир): 11 мая 2017
Премьера (РФ): 1 июня 2017
Рейтинг MPAA: Рекомендуется присутствие родителей



© Оформление by DENZEL519 for http://tapochek.net


info [Профиль]  [ЛС] 

DENZEL519

Пол: Пол:Муж

Стаж: 6 лет 6 месяцев

Сообщений: 1412

СССР
Рейтинг

post 04-Сен-2017 05:52 (спустя 1 день 8 часов) [-]0[+]

[Цитировать] 

Раздача обновлена на Дублированный [iTunes]
info [Профиль]  [ЛС] 

dukems

Пол: Пол:Муж

Стаж: 8 лет 3 месяца

Сообщений: 24

Антигуа и Барбуда
Рейтинг

post 04-Сен-2017 22:03 (спустя 16 часов) [-]1[+]

[Цитировать] 

рассинхрон русского и украинского звука с изображением жесточайший. английская дорожка норм.

_________________
i5-4440 3.1 GHz, GeForce GTX 760, 16Gb RAM
info [Профиль]  [ЛС] 

Ночной Волк

Пол: Пол:Муж

Стаж: 7 лет 10 месяцев

Сообщений: 80

Молдавия
Рейтинг

post 04-Сен-2017 23:33 (спустя 1 час 30 минут) [-]0[+]

[Цитировать] 

жуткий рассинхрон

_________________
\m/ Улыбаюсь \m/
info [Профиль]  [ЛС] 

DENZEL519

Пол: Пол:Муж

Стаж: 6 лет 6 месяцев

Сообщений: 1412

СССР
Рейтинг

post 04-Сен-2017 23:40 (спустя 6 минут) [-]0[+]

[Цитировать] 

dukems
Ночной Волк
Упс, спасибо что сообщили. Сейчас заменю.

Раздача обновлена, убран рассинхрон!
info [Профиль]  [ЛС] 
Показать сообщения:    
Ответить на тему

Текущее время: 23-Янв 17:58

Часовой пояс: GMT + 4



Вы не можете начинать темы
Вы не можете отвечать на сообщения
Вы не можете редактировать свои сообщения
Вы не можете удалять свои сообщения
Вы не можете голосовать в опросах
Вы не можете прикреплять файлы к сообщениям
Вы не можете скачивать файлы