Ошибка

Заячья школа / Rabbit school (Уте фон Мюнхов-Поль) [2017, мультфильм, семейный, WEB-DL 1080p] [iTunes]

Ответить на тему
 
Автор Сообщение

DENZEL519

Пол: Пол:Муж

Стаж: 6 лет 6 месяцев

Сообщений: 1412

СССР
Рейтинг

post 02-Сен-2017 15:35 2[+]

[Цитировать] 

Заячья школа / Rabbit school
«По уши в приключениях!»

Год выпуска: 2017
Страна: Германия
Жанр: мультфильм, семейный
Продолжительность: 01:12:33
Перевод: Дублированный [iTunes]
Субтитры: Нет
Режиссер: Уте фон Мюнхов-Поль
Сценарий: Катя Грюбель, Дагмар Ребиндер, Фриц Кох-Гота
Продюсер: Дирк Байнхольд, Валентин Гройлих, Себастьян Руншке
Композитор: Алекс Комлев
Художник: Хейко Хеншел, Бьорн Вирц
Монтаж: Эрик Штаппенбек
В ролях: Ноа Леви (Max, озвучка), Зента Бергер (Madame Hermine, озвучка), Фридрих фон Тун (Eitelfritz, озвучка), Дженни Мелина Витец (Emmi, озвучка), Макс Богут (Ernst, озвучка), Бен Боксберг (Anton, озвучка), Юля Бёве (Ruth (Fuchsmutter), озвучка), Дирк Петрик (Ferdinand, озвучка), Константин фон Ящерофф (Bruno, озвучка), Тим Сэндер (Lorenz, озвучка), Себастьян Фитцнер (Atze, озвучка), Леон Сидел (Ron, озвучка)



Описание: Макс, любитель городской суеты и молодежных развлечений, попадает туда, где ему совсем не место — в старомодную заячью школу. Но чем дольше он здесь находится, тем больше узнает о чудесном светлом празднике, ценности дружбы и собственном предназначении.


Качество: WEB-DL 1080p
Формат: MKV
Видео кодек: AVC
Аудио кодек: AC3
Видео: 1920x1038 (1.85:1), 25.000 fps, AVC, 5 016 Kbps
Аудио: Аудио #1: AC3, 384 Kbps, 48.0 KHz, 6 ch [Rus]


Код:

General
Unique ID                                : 249251585914748251260521717213187469441 (0xBB841BFB14671035BE32B7F2D1AEF081)
Complete name                            : 3aja4ja.Wk0La.2017.D.WEB-DL.1080p.mkv
Format                                   : Matroska
Format version                           : Version 4 / Version 2
File size                                : 2.79 GiB
Duration                                 : 1h 12mn
Overall bit rate                         : 5 510 Kbps
Encoded date                             : UTC 2017-09-01 10:31:54
Writing application                      : mkvmerge v8.3.0 ('Over the Horizon') 64bit
Writing library                          : libebml v1.3.1 + libmatroska v1.4.2
DURATION                                 : 01:12:33.312000000
NUMBER_OF_FRAMES                         : 136041
NUMBER_OF_BYTES                          : 208958976
_STATISTICS_WRITING_APP                  : mkvmerge v8.3.0 ('Over the Horizon') 64bit
_STATISTICS_WRITING_DATE_UTC             : 2017-09-01 10:31:54
_STATISTICS_TAGS                         : BPS DURATION NUMBER_OF_FRAMES NUMBER_OF_BYTES

Video
ID                                       : 1
Format                                   : AVC
Format/Info                              : Advanced Video Codec
Format profile                           : High@L4.0
Format settings, CABAC                   : Yes
Format settings, ReFrames                : 4 frames
Codec ID                                 : V_MPEG4/ISO/AVC
Duration                                 : 1h 12mn
Bit rate                                 : 5 016 Kbps
Width                                    : 1 920 pixels
Height                                   : 1 038 pixels
Display aspect ratio                     : 1.85:1
Frame rate mode                          : Constant
Frame rate                               : 25.000 fps
Color space                              : YUV
Chroma subsampling                       : 4:2:0
Bit depth                                : 8 bits
Scan type                                : Progressive
Bits/(Pixel*Frame)                       : 0.101
Stream size                              : 2.54 GiB (91%)
Language                                 : English
Default                                  : Yes
Forced                                   : No
Color primaries                          : BT.709
Transfer characteristics                 : BT.709
Matrix coefficients                      : BT.709

Audio
ID                                       : 2
Format                                   : AC-3
Format/Info                              : Audio Coding 3
Mode extension                           : CM (complete main)
Format settings, Endianness              : Big
Codec ID                                 : A_AC3
Duration                                 : 1h 12mn
Bit rate mode                            : Constant
Bit rate                                 : 384 Kbps
Channel(s)                               : 6 channels
Channel positions                        : Front: L C R, Side: L R, LFE
Sampling rate                            : 48.0 KHz
Bit depth                                : 16 bits
Compression mode                         : Lossy
Stream size                              : 199 MiB (7%)
Language                                 : Russian
Default                                  : Yes
Forced                                   : No

Menu
00:00:00.000                             : en:Глава 1
00:05:41.840                             : en:Глава 2
00:11:08.880                             : en:Глава 3
00:17:11.200                             : en:Глава 4
00:22:42.600                             : en:Глава 5
00:28:43.480                             : en:Глава 6
00:35:43.680                             : en:Глава 7
00:40:58.400                             : en:Глава 8
00:47:40.960                             : en:Глава 9
00:54:02.800                             : en:Глава 10
00:58:09.760                             : en:Глава 11
01:04:23.280                             : en:Глава 12

» В основу истории легла популярная немецкая сказка «Заячья школа», выпущенная в 1967 году. Книга разошлась по всему миру общим тиражом 2 500 000 экземпляров.

Сборы в России: $274 716
Зрители: Россия 104.1 тыс.
Премьера (мир): 15 марта 2017
Премьера (РФ): 20 июля 2017
Рейтинг MPAA: Нет возрастных ограничений



© Оформление by DENZEL519 for http://tapochek.net


info [Профиль]  [ЛС] 

erisdiscordia

Пол: Пол:Муж

Стаж: 5 лет 4 месяца

Сообщений: 74

Россия
Рейтинг

post 02-Сен-2017 22:19 (спустя 6 часов) [-]2[+]

[Цитировать] 

Но ведь rabbit - это кролик, а не заяц. Опять наши переводчики впереди планеты всей.
info [Профиль]  [ЛС] 

Kup

Стаж: 8 лет

Сообщений: 50

Сейшельские острова
Рейтинг

post 03-Сен-2017 00:51 (спустя 2 часа 31 минута) [-]-1[+]

[Цитировать] 

erisdiscordia писал(а):

Но ведь rabbit - это кролик, а не заяц. Опять наши переводчики впереди планеты всей.
Нет, впереди америкосы. У них зайца от кролика отличить может только охотник, у них нет разницы между кроликом и зайцем, там все кролики.
info [Профиль]  [ЛС] 
Показать сообщения:    
Ответить на тему

Текущее время: 23-Янв 18:00

Часовой пояс: GMT + 4



Вы не можете начинать темы
Вы не можете отвечать на сообщения
Вы не можете редактировать свои сообщения
Вы не можете удалять свои сообщения
Вы не можете голосовать в опросах
Вы не можете прикреплять файлы к сообщениям
Вы не можете скачивать файлы