Ошибка

Истории конца 2 / Owarimonogatari Second Season [TV-Special] [1-3 из 3] [2017] [приключения, мистика, драма, комедия] [WEBRip] [720p] [Профессиональный] MVO Kansai

Ответить на тему
 
Автор Сообщение

NovA_JKE

Пол: Пол:Жен

Стаж: 7 лет 8 месяцев

Сообщений: 654

Антарктида
Рейтинг

post 01-Сен-2017 20:52 2[+]

[Цитировать] 

pic="https://image.ibb.co/iJ4WE5/o_war2nd_260.png"


Истории конца | Owarimonogatari Second Season

Год выпуска: 2017
Страна: Япония
Жанр: приключения, мистика, драма, комедия
Тип: TV-Special
Продолжительность: 3 эп. x 45-60 мин.
Студия:
Режиссер: Симбо Акиюки, Итамура Томоюки
Автор оригинала: Нисио Исин
Релиз: студия Kansai
Перевод: Елизавета Захарьева
Озвучивание: многоголосое закадровое (Елизавета Захарьева, Юлия Рудина, Виктория Слуцкая, Ирина Обрезкова, Никита Красильников, Артём Николаев, Иван Чабан, Виктория Лаврова, Сергей Куприянов, Дмитрий Стрелков)


Описание: Школьная жизнь Арараги Коёми подходит к своему завершению. Однако, остается еще множество загадок и проблем, ждущих своего часа. И их придется решить прежде, чем идти на выпускной. Что тогда произошло в средней школе? Кто же такая Оги Ошино, что ведет его по лабиринтам минувшего? И почему его бывшая одноклассница испытывает к нему такую жгучую ненависть? Его прошлое таит множество тайн, но все сюжетные нити грандиозной саги стягиваются к своему финалу.
Дополнительная информация:


Качество: WEBRip
Формат: mkv
Видео: h.264; 8 bit; 1280x720; 23,976 fps; ~1776 kbps
Аудио:
  1. RU: AAC-LC 2.0, 48 kHz, ~256 kbps
Субтитры:
  1. RU: Soft, ASS (Надписи)

  1. Mayoi Hell (part 1, 2).
  2. Hitagi Rendezvous (part 1, 2).
  3. Ougi Dark (part 1, 2, 3).

Код:

Общее
Уникальный идентификатор                 : 206320381584104484754034507371116291639 (0x9B37DC2FB631F54485DAEBFD408CE637)
Полное имя                               : P:\NovA_JKE\Аниме\!DL Owarimonogatari Second Season (Истории конца 2) [WEBRip 720p, Студия KANSAI]\[KANSAI] Owarimonogatari TV2 - 01 [720p].mkv
Формат                                   : Matroska
Версия формата                           : Version 4 / Version 2
Размер файла                             : 636 Мбайт
Продолжительность                        : 43 м. 30 с.
Общий поток                              : 2045 Кбит/сек
Дата кодирования                         : UTC 2017-09-01 14:45:21
Программа кодирования                    : mkvmerge v12.0.0 ('Trust / Lust') 64bit
Библиотека кодирования                   : libebml v1.3.4 + libmatroska v1.4.5

Видео
Идентификатор                            : 1
Формат                                   : AVC
Формат/Информация                        : Advanced Video Codec
Профиль формата                          : High@L4
Параметр CABAC формата                   : Да
Параметр RefFrames формата               : 6 кадров
Идентификатор кодека                     : V_MPEG4/ISO/AVC
Продолжительность                        : 43 м. 30 с.
Битрейт                                  : 1776 Кбит/сек
Ширина                                   : 1280 пикселей
Высота                                   : 720 пикселей
Соотношение сторон                       : 16:9
Режим частоты кадров                     : Переменный
Частота кадров                           : 23,976 кадра/сек
Цветовое пространство                    : YUV
Субдискретизация насыщенности            : 4:2:0
Битовая глубина                          : 8 бит
Тип развёртки                            : Прогрессивная
Бит/(Пиксели*Кадры)                      : 0.080
Размер потока                            : 552 Мбайт (87%)
Заголовок                                : https://kansai.studio
Библиотека кодирования                   : x264 core 120 r2120 0c7dab9
Настройки программы                      : cabac=1 / ref=6 / deblock=1:1:1 / analyse=0x3:0x113 / me=umh / subme=8 / psy=1 / psy_rd=0.40:0.00 / mixed_ref=1 / me_range=16 / chroma_me=1 / trellis=1 / 8x8dct=1 / cqm=0 / deadzone=21,11 / fast_pskip=1 / chroma_qp_offset=-2 / threads=4 / sliced_threads=0 / nr=0 / decimate=1 / interlaced=0 / bluray_compat=0 / constrained_intra=0 / bframes=3 / b_pyramid=2 / b_adapt=2 / b_bias=0 / direct=3 / weightb=1 / open_gop=0 / weightp=2 / keyint=250 / keyint_min=23 / scenecut=40 / intra_refresh=0 / rc_lookahead=50 / rc=2pass / mbtree=1 / bitrate=1776 / ratetol=1.0 / qcomp=0.60 / qpmin=0 / qpmax=69 / qpstep=4 / cplxblur=20.0 / qblur=0.5 / vbv_maxrate=3552 / vbv_bufsize=8880 / nal_hrd=none / ip_ratio=1.40 / aq=1:0.60
Язык                                     : Japanese
Default                                  : Да
Forced                                   : Нет

Аудио
Идентификатор                            : 2
Формат                                   : AAC
Формат/Информация                        : Advanced Audio Codec
Профиль формата                          : LC
Идентификатор кодека                     : A_AAC
Продолжительность                        : 43 м. 30 с.
Битрейт                                  : 265 Кбит/сек
Каналы                                   : 2 канала
Расположение каналов                     : Front: L R
Частота                                  : 48,0 КГц
Частота кадров                           : 46,875 кадров/сек (1024 SPF)
Метод сжатия                             : С потерями
Размер потока                            : 83,8 Мбайт (13%)
Заголовок                                : KANSAI Studio
Язык                                     : Russian
Default                                  : Да
Forced                                   : Нет

Текст
Идентификатор                            : 3
Формат                                   : ASS
Идентификатор кодека                     : S_TEXT/ASS
Идентификатор кодека/Информация          : Advanced Sub Station Alpha
Продолжительность                        : 41 м. 4 с.
Битрейт                                  : 22 бит/сек
ElementCount                             : 86
Метод сжатия                             : Без потерь
Размер потока                            : 6,62 Кбайт (0%)
Заголовок                                : title
Язык                                     : Russian
Default                                  : Да
Forced                                   : Нет
info [Профиль]  [ЛС] 

Glukonatus

Стаж: 8 лет 2 месяца

Сообщений: 61

Рейтинг

post 03-Сен-2017 21:28 (спустя 2 дня) [-]0[+]

[Цитировать] 

оооо наконец то
info [Профиль]  [ЛС] 

NovA_JKE

Пол: Пол:Жен

Стаж: 7 лет 8 месяцев

Сообщений: 654

Антарктида
Рейтинг

post 06-Сен-2017 20:08 (спустя 2 дня 22 часа) [-]0[+]

[Цитировать] 

upd. 1-3 из 3. конец.
info [Профиль]  [ЛС] 

Silentkun

Пол: Пол:Муж

Стаж: 7 лет 7 месяцев

Сообщений: 56

Россия
Рейтинг

post 08-Сен-2017 15:13 (спустя 1 день 19 часов) [-]-1[+]

[Цитировать] 

NovA_JKE
Еще хочу.
info [Профиль]  [ЛС] 
Показать сообщения:    
Ответить на тему

Текущее время: 23-Ноя 04:12

Часовой пояс: GMT + 4



Вы не можете начинать темы
Вы не можете отвечать на сообщения
Вы не можете редактировать свои сообщения
Вы не можете удалять свои сообщения
Вы не можете голосовать в опросах
Вы не можете прикреплять файлы к сообщениям
Вы не можете скачивать файлы