Ошибка

Отражение / The Reflection [TV] [1-5 из 12] [2017] [приключения] [HDTV] [720p] [Профессиональный] MVO Kansai

Ответить на тему
 
Автор Сообщение

NovA_JKE

Пол: Пол:Жен

Стаж: 7 лет 8 месяцев

Сообщений: 654

Антарктида
Рейтинг

post 17-Авг-2017 22:21 0[+]

[Цитировать] 

pic="https://image.ibb.co/bCbrXF/image.gif"


Отражение | The Reflection

Год выпуска: 2017
Страна: Япония
Жанр: приключения
Тип: TV
Продолжительность: 25 эп. x 25 мин.
Студия:
Режиссер: Нагахама Хироси, Сотомэ Койтиро
Автор оригинала: Стэн Ли, Нагахама Хироси
Релиз: студия Kansai
Перевод: Никита Тарбеев
Озвучивание: многоголосое закадровое


Описание: История создана под руководством Стэна Ли. В мире неожиданно у людей начинают проявляться сверхспособности. Кто-то становится героем, а кто-то злодеем. Как это всегда и бывает, пасть на темную сторону – соблазн больший и погубивший многих. И во всем этом безумии больше всех достанется самому обычному человеку. Но, как и почему все это началось? «Ответ уже ждет вас» © Стэн Ли
Дополнительная информация:


Качество: HDTV
Формат: mkv
Видео: h.264; 8 bit; 1280x720; 23,976 fps; ~1776 kbps
Аудио:
  1. RU: AAC-LC 2.0, 48 kHz, ~256 kbps
Субтитры: нет
  1. Ceremony.
  2. Survivor.
  3. Lisa.
  4. New Orleans.
  5. Vy and Michael.

Код:

Общее
Уникальный идентификатор                 : 190019438601828745778622067538407517549 (0x8EF469A5853B2272B35CB7E9D69CED6D)
Полное имя                               : P:\NovA_JKE\Аниме\!DL The Reflection (Отражение) [WEBRip 720p, Студия KANSAI]\[KANSAI] The Reflection - 01 [720p].mkv
Формат                                   : Matroska
Версия формата                           : Version 4 / Version 2
Размер файла                             : 364 Мбайт
Продолжительность                        : 25 м. 0 с.
Общий поток                              : 2038 Кбит/сек
Дата кодирования                         : UTC 2017-07-24 15:44:05
Программа кодирования                    : mkvmerge v14.0.0 ('Flow') 64bit
Библиотека кодирования                   : libebml v1.3.4 + libmatroska v1.4.5

Видео
Идентификатор                            : 1
Формат                                   : AVC
Формат/Информация                        : Advanced Video Codec
Профиль формата                          : High@L4
Параметр CABAC формата                   : Да
Параметр RefFrames формата               : 6 кадров
Идентификатор кодека                     : V_MPEG4/ISO/AVC
Продолжительность                        : 25 м. 0 с.
Битрейт                                  : 1776 Кбит/сек
Ширина                                   : 1280 пикселей
Высота                                   : 720 пикселей
Соотношение сторон                       : 16:9
Режим частоты кадров                     : Переменный
Частота кадров                           : 23,976 (23976/1000) кадра/сек
Цветовое пространство                    : YUV
Субдискретизация насыщенности            : 4:2:0
Битовая глубина                          : 8 бит
Тип развёртки                            : Прогрессивная
Бит/(Пиксели*Кадры)                      : 0.080
Размер потока                            : 315 Мбайт (86%)
Заголовок                                : https://kansai.studio
Библиотека кодирования                   : x264 core 120 r2120 0c7dab9
Настройки программы                      : cabac=1 / ref=6 / deblock=1:1:1 / analyse=0x3:0x113 / me=umh / subme=8 / psy=1 / psy_rd=0.40:0.00 / mixed_ref=1 / me_range=16 / chroma_me=1 / trellis=1 / 8x8dct=1 / cqm=0 / deadzone=21,11 / fast_pskip=1 / chroma_qp_offset=-2 / threads=4 / sliced_threads=0 / nr=0 / decimate=1 / interlaced=0 / bluray_compat=0 / constrained_intra=0 / bframes=3 / b_pyramid=2 / b_adapt=2 / b_bias=0 / direct=3 / weightb=1 / open_gop=0 / weightp=2 / keyint=250 / keyint_min=23 / scenecut=40 / intra_refresh=0 / rc_lookahead=50 / rc=2pass / mbtree=1 / bitrate=1776 / ratetol=1.0 / qcomp=0.60 / qpmin=0 / qpmax=69 / qpstep=4 / cplxblur=20.0 / qblur=0.5 / vbv_maxrate=3552 / vbv_bufsize=8880 / nal_hrd=none / ip_ratio=1.40 / aq=1:0.60
Язык                                     : Japanese
Default                                  : Да
Forced                                   : Нет

Аудио
Идентификатор                            : 2
Формат                                   : AAC
Формат/Информация                        : Advanced Audio Codec
Профиль формата                          : LC
Идентификатор кодека                     : A_AAC
Продолжительность                        : 25 м. 0 с.
Битрейт                                  : 276 Кбит/сек
Каналы                                   : 2 канала
Расположение каналов                     : Front: L R
Частота                                  : 48,0 КГц
Частота кадров                           : 46,875 кадров/сек (1024 SPF)
Метод сжатия                             : С потерями
Размер потока                            : 49,3 Мбайт (14%)
Заголовок                                : KANSAI Studio
Язык                                     : Russian
Default                                  : Да
Forced                                   : Нет
info [Профиль]  [ЛС] 

Doctor Net

Пол: Пол:Муж

Стаж: 8 лет 4 месяца

Сообщений: 857

Россия
Рейтинг

post 19-Авг-2017 22:39 (спустя 2 дня) [-]0[+]

[Цитировать] 

Клёвая штука, Небесное шоу до сих пор в голове вертится.
Не сказать что Кастельвания, но близко.
info [Профиль]  [ЛС] 

NovA_JKE

Пол: Пол:Жен

Стаж: 7 лет 8 месяцев

Сообщений: 654

Антарктида
Рейтинг

post 23-Авг-2017 21:48 (спустя 3 дня) [-]0[+]

[Цитировать] 

Добавлена 5-я серия.
info [Профиль]  [ЛС] 

Faab88

Пол: Пол:Муж

Стаж: 6 лет

Сообщений: 161

Россия
Рейтинг

post 28-Сен-2017 10:27 (спустя 1 месяц 4 дня) [-]0[+]

[Цитировать] 

Определитесь с кол-вом эпизодов. В шапке(теме) указоно "... из 12", а в раздаче - "25 эп. x 25 мин."
info [Профиль]  [ЛС] 
Показать сообщения:    
Ответить на тему

Текущее время: 21-Ноя 11:57

Часовой пояс: GMT + 4



Вы не можете начинать темы
Вы не можете отвечать на сообщения
Вы не можете редактировать свои сообщения
Вы не можете удалять свои сообщения
Вы не можете голосовать в опросах
Вы не можете прикреплять файлы к сообщениям
Вы не можете скачивать файлы