Ошибка

Скуби-Ду! На Диком Западе / Scooby-Doo! Shaggy's Showdown (Мэтт Питерс, Dongwan Jung, Yungwon Jung) [2017, мультфильм, комедия, детектив, семейный, вестерн, WEB-DL 1080p] MVO

Ответить на тему
 
Автор Сообщение

DENZEL519

Пол: Пол:Муж

Стаж: 6 лет 4 месяца

Сообщений: 1011

СССР
Рейтинг

post 12-Авг-2017 13:24 0[+]

[Цитировать] 

Скуби-Ду! На Диком Западе / Scooby-Doo! Shaggy's Showdown
-

Год выпуска: 2017
Страна: США
Жанр: мультфильм, комедия, детектив, семейный, вестерн
Продолжительность: 01:20:01
Перевод: Любительский многоголосый [GreenРай Studio]
Субтитры: Английские
Режиссер: Мэтт Питерс, Dongwan Jung, Yungwon Jung, ...
Сценарий: Кэнди Лангдэйл, Дуглас Лангдэйл
Продюсер: Алан Барнетт, Захра Дулатабади, Сэм Реджистер
Композитор: Кристофер Картер, Майкл МакКьюшен, Лолита Ритманис
Монтаж: Стив Донмайер, Крэйг Полсен
В ролях: Фрэнк Уэлкер (Scooby-Doo / Fred Jones, озвучка), Грэй ДеЛисл (Daphne Blake, озвучка), Мэттью Лиллард (Shaggy Rogers, озвучка), Кейт Микуччи (Velma Dinkley, озвучка), Карлос Аласраки (Larry / Zeke, озвучка), Макс Чарльз (Buddy G., озвучка), Гэри Коул (Rafe, озвучка), Джессика ДиЧикко (Desdemona Gunderson, озвучка), Таня Гунади (Carol, озвучка), Эрик Ладин (Kyle, озвучка), Нолан Норт (David, озвучка), Стивен Тоболовски (Andy Gunderson, озвучка)



Описание: Главные герои отправляются в уникальное место под названием «Сумасшедшее Ранчо Q-Чуваков». Место выбрано неслучайно, ведь оно когда-то принадлежало кузену Шэгги, пропавшему без вести. Скуби-ду и команда хотят узнать, что же произошло с Тони на самом деле. Оказавшись на месте, они встречают местных жителей, которые, пугаясь Шэгги, разбегаются в разные стороны, путая его с призраком.


Качество: WEB-DL 1080p
Формат: MKV
Видео кодек: V_MPEGH/ISO/HEVC
Аудио кодек: AC3
Видео: 1916x1076 (16:9), V_MPEGH/ISO/HEVC, 2 030 Kbps
Аудио: Аудио #1: AC3, 192 Kbps, 48.0 KHz, 2 ch [Rus]
Аудио #2: AC3, 384 Kbps, 48.0 KHz, 6 ch [Eng]


Код:

General
Unique ID                                : 176002403288277037875228552074304952636 (0x8468D472DD720331B9492B07D68C193C)
Complete name                            : Scooby-Doo.Shaggys.Showdown.2017.1080p.WEB-DL.mkv
Format                                   : Matroska
Format version                           : Version 4 / Version 2
File size                                : 1.49 GiB
Duration                                 : 1h 20mn
Overall bit rate                         : 2 659 Kbps
Encoded date                             : UTC 2017-08-12 09:13:40
Writing application                      : mkvmerge v14.0.0 ('Flow') 64bit
Writing library                          : libebml v1.3.4 + libmatroska v1.4.5
DURATION                                 : 01:20:01.440000000
NUMBER_OF_FRAMES                         : 150045
NUMBER_OF_BYTES                          : 230469120
_STATISTICS_WRITING_APP                  : mkvmerge v14.0.0 ('Flow') 64bit
_STATISTICS_WRITING_DATE_UTC             : 2017-08-12 09:13:40
_STATISTICS_TAGS                         : BPS DURATION NUMBER_OF_FRAMES NUMBER_OF_BYTES

Video
ID                                       : 3
Format                                   : V_MPEGH/ISO/HEVC
Codec ID                                 : V_MPEGH/ISO/HEVC
Bit rate                                 : 2 030 Kbps
Width                                    : 1 916 pixels
Height                                   : 1 076 pixels
Display aspect ratio                     : 16:9
Frame rate mode                          : Variable
Language                                 : English
Default                                  : Yes
Forced                                   : No

Audio #1
ID                                       : 1
Format                                   : AC-3
Format/Info                              : Audio Coding 3
Mode extension                           : CM (complete main)
Format settings, Endianness              : Big
Codec ID                                 : A_AC3
Duration                                 : 1h 20mn
Bit rate mode                            : Constant
Bit rate                                 : 192 Kbps
Channel(s)                               : 2 channels
Channel positions                        : Front: L R
Sampling rate                            : 48.0 KHz
Bit depth                                : 16 bits
Compression mode                         : Lossy
Stream size                              : 110 MiB (7%)
Language                                 : Russian
Default                                  : Yes
Forced                                   : No
DURATION                                 : 01:20:01.440000000
NUMBER_OF_FRAMES                         : 115119
NUMBER_OF_BYTES                          : 1248637140
_STATISTICS_WRITING_APP                  : mkvmerge v14.0.0 ('Flow') 64bit
_STATISTICS_WRITING_DATE_UTC             : 2017-08-12 09:13:40
_STATISTICS_TAGS                         : BPS DURATION NUMBER_OF_FRAMES NUMBER_OF_BYTES

Audio #2
ID                                       : 2
Format                                   : AC-3
Format/Info                              : Audio Coding 3
Mode extension                           : CM (complete main)
Format settings, Endianness              : Big
Codec ID                                 : A_AC3
Duration                                 : 1h 20mn
Bit rate mode                            : Constant
Bit rate                                 : 384 Kbps
Channel(s)                               : 6 channels
Channel positions                        : Front: L C R, Side: L R, LFE
Sampling rate                            : 48.0 KHz
Bit depth                                : 16 bits
Compression mode                         : Lossy
Stream size                              : 220 MiB (14%)
Language                                 : English
Default                                  : No
Forced                                   : No
DURATION                                 : 01:18:12.018000000
NUMBER_OF_FRAMES                         : 1550
NUMBER_OF_BYTES                          : 82465
_STATISTICS_WRITING_APP                  : mkvmerge v14.0.0 ('Flow') 64bit
_STATISTICS_WRITING_DATE_UTC             : 2017-08-12 09:13:40
_STATISTICS_TAGS                         : BPS DURATION NUMBER_OF_FRAMES NUMBER_OF_BYTES

Text
ID                                       : 4
Format                                   : ASS
Codec ID                                 : S_TEXT/ASS
Codec ID/Info                            : Advanced Sub Station Alpha
Compression mode                         : Lossless
Language                                 : English
Default                                  : Yes
Forced                                   : No

Премьера (мир): 14 февраля 2017



© Оформление by DENZEL519 for http://tapochek.net


info [Профиль]  [ЛС] 

_Qwest_

Пол: Пол:Муж

Стаж: 3 года 10 месяцев

Сообщений: 452

СССР
Рейтинг

post 12-Авг-2017 18:58 (спустя 5 часов) [-]1[+]

[Цитировать] 

Эх, опять без Скрепи)

_________________
info [Профиль]  [ЛС] 
Показать сообщения:    
Ответить на тему

Текущее время: 18-Ноя 03:20

Часовой пояс: GMT + 4



Вы не можете начинать темы
Вы не можете отвечать на сообщения
Вы не можете редактировать свои сообщения
Вы не можете удалять свои сообщения
Вы не можете голосовать в опросах
Вы не можете прикреплять файлы к сообщениям
Вы не можете скачивать файлы