Ошибка

Обезглавливающий цикл: Синий савант и Повелитель бессмыслиц/ Kubikiri Cycle: Aoiro Savant to Zaregotozukai [OVA] [1-8 из 8] [2016] [Драма, Экшен, Сверхъестественное, Детектив] [BDRip] [720p] [Субтитры (JAP)]

Ответить на тему
 
Автор Сообщение

anoningen

Стаж: 4 года 7 месяцев

Сообщений: 567

Самоа
Рейтинг

post 10-Авг-2017 14:30 1[+]

[Цитировать] 

Обезглавливающий цикл: Синий савант и Повелитель бессмыслиц
Kubikiri Cycle: Aoiro Savant to Zaregotozuka
クビキリサイクル 青色サヴァンと戯言遣い

Год выпуска:
2016.
Тип: OVA
Жанр: Драма, Экшен, Сверхъестественное, Детектив
Режиссер: Симбо Акиюки
Автор оригинала: Нисио Исин
Студия:
Продолжительность: >8 эп. по 30 мин
Русские субтитры: ASS, внешним файлом

Субтитры 1: [AOS] (1-6)
Переводчики: Makentosh, RazGildyai, Bourbonice
Редактор/Оформитель: MustDie

Субтитры 2: [SovetRomantica] (1-8)
Переводчики: Ararararagi, Alex_Drake, Sempre_Libera

Описание: Сюжет данного аниме разворачивается на острове Пера Мокрого Ворона, в поместье Ирии Акагами - внучки главы фонда Акагами, весьма влиятельной организации в стране, однако здесь она отнюдь не на отдыхе, она в изгнании и отрезана от остального мира. Засим, дабы развлечь себя в пределах острова, она приглашает к себе гениев, пообщаться с ними, тем самым развлекая себя, взамен предоставляя гостям полную свободу действии, но с одним условием - ужинать нужно приходить всем и вкушать изыски, приготовленные гениальным поваром.

Здесь же, в качестве эскорта для гениального инженера с синдромом Саванта - Кунагисы Томо, присутствует и главный герой сего произведения, имя которого, однако, не разглашается. Всё бы хорошо, но происходит немыслимое и ужасное событие, которое требует немедленного разрешения и действий, иначе опасность грозит всем обитателям острова...
Автор рипа: Ohys-Raws
Качество: BDRip
Формат видео: MPEG-4
Видео: AVC, 8 бит, 1280x720; 23.976 кадра/сек; 2548 Кбит/сек, (16:9)
Аудио: AAC, 48,0 КГц, переменный ~213 Кбит/сек, 2 канала
Общее
Полное имя : G:\Anime\Kubikiri Cycle\[Ohys-Raws] Kubikiri Cycle Aoiro Savant to Zaregoto Tsukai - 01 (BD 1280x720 x264 AACx2).mp4
Формат : MPEG-4
Профиль формата : Base Media
Идентификатор кодека : isom (isom/avc1)
Размер файла : 571 Мбайт
Продолжительность : 27 м. 8 с.
Режим общего битрейта : Переменный
Общий поток : 2941 Кбит/сек
Дата кодирования : UTC 2016-11-16 10:40:49
Дата пометки : UTC 2016-11-16 10:40:49

Видео
Идентификатор : 1
Формат : AVC
Формат/Информация : Advanced Video Codec
Профиль формата : Main@L4.1
Параметр CABAC формата : Да
Параметр ReFrames формата : 4 кадра
Идентификатор кодека : avc1
Идентификатор кодека/Информация : Advanced Video Coding
Продолжительность : 27 м. 8 с.
Битрейт : 2548 Кбит/сек
Максимальный битрейт : 18,4 Мбит/сек
Ширина : 1280 пикселей
Высота : 720 пикселей
Соотношение сторон : 16:9
Режим частоты кадров : Постоянный
Частота кадров : 23,976 (24000/1001) кадра/сек
Цветовое пространство : YUV
Субдискретизация насыщенности : 4:2:0
Битовая глубина : 8 бит
Тип развёртки : Прогрессивная
Бит/(Пиксели*Кадры) : 0.115
Размер потока : 494 Мбайт (87%)
Библиотека кодирования : x264 core 148 r2721 72d53ab
Настройки программы : cabac=1 / ref=3 / deblock=1:0:0 / analyse=0x1:0x131 / me=umh / subme=9 / psy=1 / psy_rd=1.00:0.00 / mixed_ref=1 / me_range=32 / chroma_me=1 / trellis=1 / 8x8dct=0 / cqm=0 / deadzone=21,11 / fast_pskip=1 / chroma_qp_offset=-2 / threads=12 / lookahead_threads=1 / sliced_threads=0 / nr=0 / decimate=1 / interlaced=0 / bluray_compat=0 / constrained_intra=0 / bframes=3 / b_pyramid=2 / b_adapt=1 / b_bias=0 / direct=1 / weightb=1 / open_gop=0 / weightp=2 / keyint=240 / keyint_min=1 / scenecut=40 / intra_refresh=0 / rc_lookahead=40 / rc=crf / mbtree=1 / crf=17.0 / qcomp=0.60 / qpmin=0 / qpmax=69 / qpstep=4 / ip_ratio=1.40 / aq=1:1.00
Дата кодирования : UTC 2016-11-16 10:40:49
Дата пометки : UTC 2016-11-16 10:40:52

Аудио #1
Идентификатор : 2
Формат : AAC
Формат/Информация : Advanced Audio Codec
Профиль формата : LC
Идентификатор кодека : 40
Продолжительность : 27 м. 8 с.
Вид битрейта : Переменный
Битрейт : 213 Кбит/сек
Максимальный битрейт : 253 Кбит/сек
Каналы : 2 канала
Расположение каналов : Front: L R
Частота : 48,0 КГц
Частота кадров : 46,875 кадров/сек (1024 spf)
Метод сжатия : С потерями
Размер потока : 41,3 Мбайт (7%)
Язык : Japanese
Дата кодирования : UTC 2016-11-16 10:00:02
Дата пометки : UTC 2016-11-16 10:40:52

Аудио #2
Идентификатор : 3
Формат : AAC
Формат/Информация : Advanced Audio Codec
Профиль формата : LC
Идентификатор кодека : 40
Продолжительность : 27 м. 8 с.
Вид битрейта : Переменный
Битрейт : 175 Кбит/сек
Максимальный битрейт : 231 Кбит/сек
Каналы : 2 канала
Расположение каналов : Front: L R
Частота : 48,0 КГц
Частота кадров : 46,875 кадров/сек (1024 spf)
Метод сжатия : С потерями
Размер потока : 33,9 Мбайт (6%)
Язык : Japanese
Дата кодирования : UTC 2016-11-16 10:01:05
Дата пометки : UTC 2016-11-16 10:40:52
info [Профиль]  [ЛС] 

anoningen

Стаж: 4 года 7 месяцев

Сообщений: 567

Самоа
Рейтинг

post 27-Окт-2017 22:31 (спустя 2 месяца 17 дней) [-]0[+]

[Цитировать] 

Добавил 7 - 8 серии.
info [Профиль]  [ЛС] 

Qbot

Пол: Пол:Муж

Стаж: 7 лет 9 месяцев

Сообщений: 39

Бутан
Рейтинг

post 30-Окт-2017 23:31 (спустя 3 дня) [-]0[+]

[Цитировать] 

Спасибо, действительно что то интересное, на фоне других произведений.
info [Профиль]  [ЛС] 
Показать сообщения:    
Ответить на тему

Текущее время: 18-Дек 10:54

Часовой пояс: GMT + 4



Вы не можете начинать темы
Вы не можете отвечать на сообщения
Вы не можете редактировать свои сообщения
Вы не можете удалять свои сообщения
Вы не можете голосовать в опросах
Вы не можете прикреплять файлы к сообщениям
Вы не можете скачивать файлы