Ошибка
Загрузка...

Инспекторы чудес Ватикана/ Vatican Kiseki Chousakan [TV] [1-7 из 12] [2017] [Мистика, Драма, Сверхъестественное, Детектив] [HDTVRip] [720p] [Субтитры (JAP)]

Ответить на тему
 
Автор Сообщение

anoningen

Стаж: 4 года 3 месяца

Сообщений: 478

Самоа
Рейтинг

post 05-Авг-2017 20:51 0[+]

[Цитировать] 

Инспекторы чудес Ватикана
Vatican Miracle Examiner
Vatican Kiseki Chousakan l バチカン奇跡調査官

Год выпуска:
2017.
Тип: TV
Жанр: Мистика, Драма, Сверхъестественное, Детектив
Режиссер: Ёнэтани Ёситомо
Автор оригинала: Фудзики Рин
Студия:
Продолжительность: >12 эп. по 25 мин
Русские субтитры: ASS, внешним файлом

Переводчик: Anku [Pegasus sui vsem ken]
Редактор/Оформитель: mutagenb [Pegasus sui vsem ken]

Описание: Ватикан — святая земля католиков. И на этой земле создана организация, сотрудники которой разъезжают по всему миру, проводя тщательные расследования необычных явлений и событий, доказывая или опровергая их «чудесную» суть. Организация эта известна как «Коллегия святых», и расследованиями занимаются входящие в ее состав священники. Перед нами предстанут двое представителей организации, напарники по расследованиям и хорошие друзья: Роберт Николас, эксперт по древним текстам и криптоанализу, и Йозеф Ко Хирага, гениальный ученый. Совместными усилиями блистательный дуэт изучает достоверность чудес, а то и раскрывает обман и преступления, стоящие за ними.
Автор рипа: Ohys-Raws
Качество: HDTVRip
Формат видео: MPEG-4
Видео: AVC, 8 бит, 1280x720; 23.976 кадра/сек; 2015 Кбит/сек, (16:9)
Аудио: AAC, 48,0 КГц, переменный ~203 Кбит/сек, 2 канала
Общее
Полное имя : G:\Anime\Vatican Kiseki Chousakan\[Ohys-Raws] Vatican Kiseki Chousakan - 01 (WOWOW 1280x720 x264 AAC).mp4
Формат : MPEG-4
Профиль формата : Base Media
Идентификатор кодека : isom (isom/avc1)
Размер файла : 377 Мбайт
Продолжительность : 23 м. 42 с.
Режим общего битрейта : Переменный
Общий поток : 2222 Кбит/сек
Дата кодирования : UTC 2017-07-07 14:14:17
Дата пометки : UTC 2017-07-07 14:14:17

Видео
Идентификатор : 1
Формат : AVC
Формат/Информация : Advanced Video Codec
Профиль формата : Main@L4.1
Параметр CABAC формата : Да
Параметр ReFrames формата : 4 кадра
Идентификатор кодека : avc1
Идентификатор кодека/Информация : Advanced Video Coding
Продолжительность : 23 м. 42 с.
Битрейт : 2015 Кбит/сек
Максимальный битрейт : 12,6 Мбит/сек
Ширина : 1280 пикселей
Высота : 720 пикселей
Соотношение сторон : 16:9
Режим частоты кадров : Постоянный
Частота кадров : 23,976 (24000/1001) кадра/сек
Цветовое пространство : YUV
Субдискретизация насыщенности : 4:2:0
Битовая глубина : 8 бит
Тип развёртки : Прогрессивная
Бит/(Пиксели*Кадры) : 0.091
Размер потока : 342 Мбайт (91%)
Библиотека кодирования : x264 core 152 r2851+58 429492e t_mod_Custom [8-bit@all X86_64]
Настройки программы : cabac=1 / ref=3 / deblock=1:0:0 / analyse=0x1:0x111 / me=hex / subme=7 / psy=1 / fade_compensate=0.00 / psy_rd=1.00:0.00 / mixed_ref=1 / me_range=16 / chroma_me=1 / trellis=1 / 8x8dct=0 / cqm=0 / deadzone=21,11 / fast_pskip=1 / chroma_qp_offset=-2 / threads=12 / lookahead_threads=2 / sliced_threads=0 / nr=0 / decimate=1 / interlaced=0 / bluray_compat=0 / constrained_intra=0 / fgo=0 / bframes=3 / b_pyramid=2 / b_adapt=1 / b_bias=0 / direct=1 / weightb=1 / open_gop=0 / weightp=2 / keyint=240 / keyint_min=1 / scenecut=40 / intra_refresh=0 / rc_lookahead=40 / rc=crf / mbtree=1 / crf=20.0000 / qcomp=0.60 / qpmin=0:0:0 / qpmax=69:69:69 / qpstep=4 / ip_ratio=1.40 / aq=1:1.50 / aq-sensitivity=10.00 / aq-factor=1.00:1.00:1.00 / aq2=0 / aq3=0
Дата кодирования : UTC 2017-07-07 14:14:17
Дата пометки : UTC 2017-07-07 14:14:19
Цветовой диапазон : Limited
Основные цвета : BT.709
Характеристики трансфера : BT.709
Коэффициенты матрицы : BT.709

Аудио
Идентификатор : 2
Формат : AAC
Формат/Информация : Advanced Audio Codec
Профиль формата : LC
Идентификатор кодека : 40
Продолжительность : 23 м. 42 с.
Вид битрейта : Переменный
Битрейт : 203 Кбит/сек
Максимальный битрейт : 254 Кбит/сек
Каналы : 2 канала
Расположение каналов : Front: L R
Частота : 48,0 КГц
Частота кадров : 46,875 кадров/сек (1024 spf)
Метод сжатия : С потерями
Размер потока : 34,4 Мбайт (9%)
Язык : Japanese
Дата кодирования : UTC 2017-07-07 14:07:18
Дата пометки : UTC 2017-07-07 14:14:19
info [Профиль]  [ЛС] 

Nightery

Пол: Пол:Муж

Стаж: 4 года 3 месяца

Сообщений: 136

Япония
Рейтинг

post 06-Авг-2017 11:20 (спустя 14 часов) [-]0[+]

[Цитировать] 

Какой же там бред в сюжетном плане и диалогах.
info [Профиль]  [ЛС] 

anoningen

Стаж: 4 года 3 месяца

Сообщений: 478

Самоа
Рейтинг

post 13-Авг-2017 16:26 (спустя 7 дней) [-]0[+]

[Цитировать] 

Добавил 6 серию.
info [Профиль]  [ЛС] 

Хеор

Пол: Пол:Муж

Стаж: 7 лет 10 месяцев

Сообщений: 248

СССР
Рейтинг

post 14-Авг-2017 14:45 (спустя 22 часа) [-]0[+]

[Цитировать] 

Католики? По всему миру расследуют?... Кто ж их пущщает-то?
info [Профиль]  [ЛС] 

anoningen

Стаж: 4 года 3 месяца

Сообщений: 478

Самоа
Рейтинг

post 20-Авг-2017 22:47 (спустя 6 дней) [-]0[+]

[Цитировать] 

Добавил 7 серию.
info [Профиль]  [ЛС] 
Показать сообщения:    
Ответить на тему

Текущее время: 21-Авг 14:23

Часовой пояс: GMT + 4



Вы не можете начинать темы
Вы не можете отвечать на сообщения
Вы не можете редактировать свои сообщения
Вы не можете удалять свои сообщения
Вы не можете голосовать в опросах
Вы не можете прикреплять файлы к сообщениям
Вы не можете скачивать файлы