Ошибка

Каслвания / Кастлвания / Castlevania (Сезон 1 / Серии 1-4 из 4) (Сэм Дитс) [2017 г., драма, приключения, фэнтези, сверхъестественное, WEB-DL 720p] MVO Kansai

Ответить на тему
 
Автор Сообщение

NovA_JKE

Пол: Пол:Жен

Стаж: 7 лет 4 месяца

Сообщений: 512

Антарктида
Рейтинг

post 13-Июл-2017 22:44 9[+]

[Цитировать] 

pic="http://savepic.ru/14865185.gif"


Каслвания | Кастлвания | Castlevania

Год выпуска: 2017
Страна: США
Жанр: драма, приключения, фэнтези, сверхъестественное
Продолжительность: 4 эп. x 25 мин.
Студия: Frederator Studios, Powerhouse Animation Studios, Shankar Animation, Project 51 Productions, Mua Film
Режиссер: Сэм Дитс
Сценарий: Уоррен Эллис
Релиз: студия Kansai
Перевод: Елизавета Захарьева
Озвучивание: многоголосое закадровое


Описание: Смелая девушка Лиза приходит прямиком в замок графа Дракулы, чтобы тот поделился с ней всеми доступными научными знаниями. У неё благородная цель — девушка хочет стать лучшим врачом и облегчить жизнь людей, но местные не оценили рвения, и уже через год Лизу сжигают на костре за колдовство. Взбешённый Дракула решает мстить за любимую — он даёт жителям города год, а затем насылает на них полчища демонов из ада.
Дополнительная информация:


Качество: WEB-DL 720p
Формат: mkv
Видео: h.264; 8 bit; 1280x720; 23,976 fps; ~2642 kbps
Аудио:
  1. RU: AC3 2.0, 48 kHz, 384 kbps
Субтитры: нет
  1. Witchbottle.
  2. Necropolis.
  3. Labyrinth.
  4. Monument.

Код:

Общее
Уникальный идентификатор                 : 173911364279920988526255313234640080684 (0x82D61C4410B5C7AF897912A652258F2C)
Полное имя                               : P:\NovA_JKE\Сериалы\Castlevania (Каслвания) [Сезон 1] [WEB-DL 720p] [Kansai]\[KANSAI] Castlevania - 01 [720p].mkv
Формат                                   : Matroska
Версия формата                           : Version 4 / Version 2
Размер файла                             : 543 Мбайт
Продолжительность                        : 25 м. 3 с.
Общий поток                              : 3028 Кбит/сек
Дата кодирования                         : UTC 2017-07-13 15:48:47
Программа кодирования                    : mkvmerge v13.0.0 ('The Juggler') 64bit
Библиотека кодирования                   : libebml v1.3.4 + libmatroska v1.4.5

Видео
Идентификатор                            : 1
Формат                                   : AVC
Формат/Информация                        : Advanced Video Codec
Профиль формата                          : High@L4.1
Параметр CABAC формата                   : Да
Параметр ReFrames формата                : 5 кадров
Идентификатор кодека                     : V_MPEG4/ISO/AVC
Продолжительность                        : 25 м. 3 с.
Битрейт                                  : 2642 Кбит/сек
Ширина                                   : 1280 пикселей
Высота                                   : 720 пикселей
Соотношение сторон                       : 16:9
Режим частоты кадров                     : Постоянный
Частота кадров                           : 23,976 (24000/1001) кадра/сек
Цветовое пространство                    : YUV
Субдискретизация насыщенности            : 4:2:0
Битовая глубина                          : 8 бит
Тип развёртки                            : Прогрессивная
Бит/(Пиксели*Кадры)                      : 0.120
Размер потока                            : 474 Мбайт (87%)
Заголовок                                : https://kansai.studio
Библиотека кодирования                   : x264 core 152 r2851 ba24899
Настройки программы                      : cabac=1 / ref=5 / deblock=1:1:1 / analyse=0x3:0x113 / me=umh / subme=8 / psy=1 / psy_rd=1.00:0.15 / mixed_ref=1 / me_range=16 / chroma_me=1 / trellis=2 / 8x8dct=1 / cqm=0 / deadzone=21,11 / fast_pskip=0 / chroma_qp_offset=-2 / threads=12 / lookahead_threads=2 / sliced_threads=0 / nr=0 / decimate=1 / interlaced=0 / bluray_compat=0 / constrained_intra=0 / bframes=3 / b_pyramid=2 / b_adapt=1 / b_bias=0 / direct=3 / weightb=1 / open_gop=0 / weightp=2 / keyint=240 / keyint_min=23 / scenecut=40 / intra_refresh=0 / rc_lookahead=50 / rc=crf / mbtree=1 / crf=18.0 / qcomp=0.60 / qpmin=0 / qpmax=69 / qpstep=4 / ip_ratio=1.40 / aq=3:0.80
Язык                                     : English
Default                                  : Да
Forced                                   : Нет

Аудио
Идентификатор                            : 2
Формат                                   : AC-3
Формат/Информация                        : Audio Coding 3
Параметр Endianness формата              : Big
Идентификатор кодека                     : A_AC3
Продолжительность                        : 25 м. 3 с.
Вид битрейта                             : Постоянный
Битрейт                                  : 384 Кбит/сек
Каналы                                   : 2 канала
Расположение каналов                     : Front: L R
Частота                                  : 48,0 КГц
Частота кадров                           : 31,250 кадров/сек (1536 spf)
Битовая глубина                          : 16 бит
Метод сжатия                             : С потерями
Размер потока                            : 68,8 Мбайт (13%)
Заголовок                                : KANSAI Studio
Язык                                     : Russian
ServiceKind/String                       : Complete Main
Default                                  : Да
Forced                                   : Нет
info [Профиль]  [ЛС] 

Lipych

Пол: Пол:Муж

Стаж: 4 года 9 месяцев

Сообщений: 50

Россия
Рейтинг

post 14-Июл-2017 02:45 (спустя 4 часа) [-]0[+]

[Цитировать] 

Обзор игромании https://www.youtube.com/watch?v=hb6sQ9cjAXU спасибо крутой мульт
info [Профиль]  [ЛС] 

DeathBolt

Стаж: 8 лет

Сообщений: 27

Рейтинг

post 15-Июл-2017 20:57 (спустя 1 день 18 часов) [-]6[+]

[Цитировать] 

В аудио дорожке, долбаная реклама.
info [Профиль]  [ЛС] 

Doomartulokan

Пол: Пол:Муж

Стаж: 7 лет 9 месяцев

Сообщений: 906

Предупреждений: 2

Россия
Рейтинг

post 15-Июл-2017 21:54 (спустя 56 минут) [-]0[+]

[Цитировать] 

Я извиняюсь, не совсем в теме. Это тот самый от нетфликс ?
info [Профиль]  [ЛС] 

mir19

Стаж: 6 лет 10 месяцев

Сообщений: 37

Рейтинг

post 15-Июл-2017 21:56 (спустя 2 минуты) [-]0[+]

[Цитировать] 

да
info [Профиль]  [ЛС] 

marko

Стаж: 6 лет 10 месяцев

Сообщений: 614

Рейтинг

post 16-Июл-2017 07:37 (спустя 9 часов) [-]4[+]

[Цитировать] 

Касл вания да .

_________________
info [Профиль]  [ЛС] 

wolf88

Пол: Пол:Муж

Стаж: 4 года 6 месяцев

Сообщений: 3

Рейтинг

post 16-Июл-2017 09:06 (спустя 1 час 28 минут) [-]0[+]

[Цитировать] 

сколько всего серии будет. Пока мульт нравится))). Хоть что то нормальное сделали
info [Профиль]  [ЛС] 

EV@NGELION

Стаж: 7 лет 9 месяцев

Сообщений: 98

Рейтинг

post 16-Июл-2017 12:04 (спустя 2 часа 58 минут) [-]1[+]

[Цитировать] 

wolf88 писал(а):

сколько всего серии будет. Пока мульт нравится))). Хоть что то нормальное сделали
сезон закончен, в нем 4 серии. Ждем следующий сезон, надеюсь в нем будет больше серий.

P.s. Для тех, кто сомневается, смотреть или нет - ШИКАРДОСНЫЙ МУЛЬТ, К ПРОСМОТРУ ОБЯЗАТЕЛЕН!
info [Профиль]  [ЛС] 

diabolic2010

Стаж: 8 лет 3 месяца

Сообщений: 427

Россия
Рейтинг

post 16-Июл-2017 13:51 (спустя 1 час 46 минут) [-]0[+]

[Цитировать] 

по вики правильно воще Кяссуруваниа Улыбаюсь

_________________
info [Профиль]  [ЛС] 

Park52

Пол: Пол:Муж

Стаж: 4 года 5 месяцев

Сообщений: 204

Украина
Рейтинг

post 16-Июл-2017 17:07 (спустя 3 часа) [-]0[+]

[Цитировать] 

Весь экшен заключен в одной серии, напоминает вступление для какой-то части игры.
info [Профиль]  [ЛС] 

Faab88

Пол: Пол:Муж

Стаж: 5 лет 8 месяцев

Сообщений: 153

Россия
Рейтинг

post 16-Июл-2017 19:05 (спустя 1 час 57 минут) [-]0[+]

[Цитировать] 

По рисовке напоминает последние три игры, включая переиздание "Зеркало Судьбы". Беда в том, что серия игр не стабильный и линейный рассказ связанных между собой игр, а набор персов - Дракула, Бельмонт и местами Алукард.
И да, по мульту - подтверждено, что в следующем сезоне будет 8 серий.
info [Профиль]  [ЛС] 

vitkosh

Пол: Пол:Муж

Стаж: 6 лет

Сообщений: 546

Предупреждений: 1

Россия
Рейтинг

post 16-Июл-2017 20:17 (спустя 1 час 12 минут) [-]2[+]

[Цитировать] 

DeathBolt писал(а):

В аудио дорожке, долбаная реклама.
за это убивать надо!!!
info [Профиль]  [ЛС] 

NovA_JKE

Пол: Пол:Жен

Стаж: 7 лет 4 месяца

Сообщений: 512

Антарктида
Рейтинг

post 16-Июл-2017 20:39 (спустя 22 минуты) [-]-3[+]

[Цитировать] 

vitkosh писал(а):

DeathBolt писал(а):

В аудио дорожке, долбаная реклама.
за это убивать надо!!!
сильное заявление..
info [Профиль]  [ЛС] 

Kaiser88

Стаж: 6 лет

Сообщений: 116

СССР
Рейтинг

post 17-Июл-2017 16:06 (спустя 19 часов) [-]0[+]

[Цитировать] 

Однако, мультфильм понравился.

Жду новых серий.
info [Профиль]  [ЛС] 

Trevg

Пол: Пол:Муж

Стаж: 4 года 2 месяца

Сообщений: 5

Рейтинг

post 19-Июл-2017 20:51 (спустя 2 дня 4 часа) [-]0[+]

[Цитировать] 

NovA_JKE писал(а):

vitkosh писал(а):

DeathBolt писал(а):

В аудио дорожке, долбаная реклама.
за это убивать надо!!!
сильное заявление..
Я тоже не в восторге от рекламы, допускаю её в титрах, но вот по ходу мультфильма она явно лишняя, причем во второй серии на времени 06.55 она перекрывает слова главного героя, так что их не разобрать. Вы считаете это нормальным?
info [Профиль]  [ЛС] 

NovA_JKE

Пол: Пол:Жен

Стаж: 7 лет 4 месяца

Сообщений: 512

Антарктида
Рейтинг

post 19-Июл-2017 23:30 (спустя 2 часа 39 минут) [-]0[+]

[Цитировать] 

там WEB-DL 1080p БЕЗ рекламы С:
info [Профиль]  [ЛС] 
Показать сообщения:    
Ответить на тему

Текущее время: 26-Июл 20:39

Часовой пояс: GMT + 4



Вы не можете начинать темы
Вы не можете отвечать на сообщения
Вы не можете редактировать свои сообщения
Вы не можете удалять свои сообщения
Вы не можете голосовать в опросах
Вы не можете прикреплять файлы к сообщениям
Вы не можете скачивать файлы