Ошибка

Альтаир: На Пороге Войны / Altair: A Record of Battles / Shoukoku no Altair [TV] [1-24 из 24] [2017] [приключения, фэнтези] [WEBRip] [720p] [Профессиональный] MVO Kansai

Ответить на тему
 
Автор Сообщение

NovA_JKE

Пол: Пол:Жен

Стаж: 7 лет 11 месяцев

Сообщений: 687

Антарктида
Рейтинг

post 13-Июл-2017 20:41 1[+]

[Цитировать] 

pic="https://image.ibb.co/gRL76a/altair.gif"


Альтаир: На Пороге Войны | Altair: A Record of Battles | Shoukoku no Altair

Год выпуска: 2017
Страна: Япония
Жанр: приключения, фэнтези
Тип: TV
Продолжительность: 24 эп. x 25 мин.
Студия:
Режиссер: Фурухаси Кадзухиро
Автор оригинала: Като Котоно
Релиз: студия Kansai
Перевод: Студийная Банда
Озвучивание: многоголосое закадровое [Студийная Банда]


Описание: Торгил Махмуд – молодой паша, направленный на службу в Тюркийскую державу. Угроза войны нависла над его страной. С расколом Тюркии на пацифистов и сторонников войны, Махмуд начинает свое расследование, чтобы сохранить мир любой ценой. Он увязает все глубже и глубже в политике древнего мира, встречая на своем пути новых друзей и врагов. Кто победит? И что будет делать Махмуд, если война станет неизбежной?
Дополнительная информация:


Качество: WEBRip
Формат: mkv
Видео: h.264; 8 bit; 1280x720; 23,976 fps; ~1852 kbps
Аудио:
  1. RU: AAC-LC 2.0, 48 kHz, ~256 kbps
Субтитры: нет
  1. Паша "Беркут".
  2. Цитадель.
  3. Совет Генералов.
  4. Схватка орла.
  5. Город у маяка.
  6. Железные цепи.
  7. Тонущий город.
  8. Маскарад Искренности.
  9. Султан красный тигр.
  10. Dance of the Moonlit Beauty.
  11. The Prince of Swords.
  12. Battle at the Unusual Rock Formations.
  13. Conclusion of the Civil War.
  14. The Caravan Daughter.
  15. The Northern Kingdom.
  16. Beginning of the Great War.
  17. The Flower`s Plan.
  18. Wishing on Stars.
  19. The Cage of Paradise.
  20. Distant Funeral Bells.
  21. Alliance Against the Empire.
  22. Golden Eagle`s Pursuit.
  23. The End of Paradise.
  24. Instigation.

Код:

Общее
Уникальный идентификатор                 : 206280878243956378638219863587474546435 (0x9B30408576045B678F6B93176DEE9F03)
Полное имя                               : P:\NovA_JKE\Аниме\!DL Shoukoku no Altair (Альтаир - На Пороге Войны) [WEBRip 720p, Студия KANSAI]\[KANSAI] Shoukoku no Altair - 01 [720p].mkv
Формат                                   : Matroska
Версия формата                           : Version 4 / Version 2
Размер файла                             : 363 Мбайт
Продолжительность                        : 24 м. 7 с.
Режим общего битрейта                    : Переменный
Общий поток                              : 2101 Кбит/сек
Дата кодирования                         : UTC 2017-07-12 17:53:45
Программа кодирования                    : mkvmerge v13.0.0 ('The Juggler') 64bit
Библиотека кодирования                   : libebml v1.3.4 + libmatroska v1.4.5

Видео
Идентификатор                            : 1
Формат                                   : AVC
Формат/Информация                        : Advanced Video Codec
Профиль формата                          : High@L3.1
Параметр CABAC формата                   : Да
Параметр ReFrames формата                : 5 кадров
Идентификатор кодека                     : V_MPEG4/ISO/AVC
Продолжительность                        : 24 м. 2 с.
Вид битрейта                             : Переменный
Битрейт                                  : 1852 Кбит/сек
Максимальный битрейт                     : 4500 Кбит/сек
Ширина                                   : 1280 пикселей
Высота                                   : 720 пикселей
Соотношение сторон                       : 16:9
Режим частоты кадров                     : Постоянный
Частота кадров                           : 23,976 (24000/1001) кадра/сек
Цветовое пространство                    : YUV
Субдискретизация насыщенности            : 4:2:0
Битовая глубина                          : 8 бит
Тип развёртки                            : Прогрессивная
Бит/(Пиксели*Кадры)                      : 0.084
Размер потока                            : 318 Мбайт (88%)
Заголовок                                : https://kansai.studio
Язык                                     : Japanese
Default                                  : Да
Forced                                   : Нет
Цветовой диапазон                        : Limited
Основные цвета                           : BT.709
Характеристики трансфера                 : BT.709
Коэффициенты матрицы                     : BT.709

Аудио
Идентификатор                            : 2
Формат                                   : AAC
Формат/Информация                        : Advanced Audio Codec
Профиль формата                          : LC
Идентификатор кодека                     : A_AAC
Продолжительность                        : 24 м. 7 с.
Битрейт                                  : 255 Кбит/сек
Каналы                                   : 2 канала
Расположение каналов                     : Front: L R
Частота                                  : 48,0 КГц
Частота кадров                           : 46,875 кадров/сек (1024 spf)
Метод сжатия                             : С потерями
Размер потока                            : 44,0 Мбайт (12%)
Заголовок                                : KANSAI Studio
Язык                                     : Russian
Default                                  : Да
Forced                                   : Нет
info [Профиль]  [ЛС] 

NovA_JKE

Пол: Пол:Жен

Стаж: 7 лет 11 месяцев

Сообщений: 687

Антарктида
Рейтинг

post 16-Июл-2017 22:08 (спустя 3 дня) [-]1[+]

[Цитировать] 

upd. 2я серия.
info [Профиль]  [ЛС] 

NovA_JKE

Пол: Пол:Жен

Стаж: 7 лет 11 месяцев

Сообщений: 687

Антарктида
Рейтинг

post 24-Июл-2017 22:44 (спустя 8 дней) [-]1[+]

[Цитировать] 

upd. 3я серия.
info [Профиль]  [ЛС] 

NovA_JKE

Пол: Пол:Жен

Стаж: 7 лет 11 месяцев

Сообщений: 687

Антарктида
Рейтинг

post 31-Июл-2017 23:34 (спустя 7 дней) [-]1[+]

[Цитировать] 

upd. 4я серия.
info [Профиль]  [ЛС] 

NovA_JKE

Пол: Пол:Жен

Стаж: 7 лет 11 месяцев

Сообщений: 687

Антарктида
Рейтинг

post 22-Авг-2017 19:35 (спустя 21 день) [-]1[+]

[Цитировать] 

upd. 5я серия.
info [Профиль]  [ЛС] 

NovA_JKE

Пол: Пол:Жен

Стаж: 7 лет 11 месяцев

Сообщений: 687

Антарктида
Рейтинг

post 05-Сен-2017 19:22 (спустя 13 дней) [-]1[+]

[Цитировать] 

upd. 6-8 серии.
info [Профиль]  [ЛС] 

NovA_JKE

Пол: Пол:Жен

Стаж: 7 лет 11 месяцев

Сообщений: 687

Антарктида
Рейтинг

post 12-Сен-2017 20:14 (спустя 7 дней) [-]1[+]

[Цитировать] 

upd. 9я серия.
info [Профиль]  [ЛС] 

NovA_JKE

Пол: Пол:Жен

Стаж: 7 лет 11 месяцев

Сообщений: 687

Антарктида
Рейтинг

post 25-Дек-2017 19:42 (спустя 3 месяца 12 дней) [-]1[+]

[Цитировать] 

upd. 10-24 серии. конец.
info [Профиль]  [ЛС] 
Показать сообщения:    
Ответить на тему

Текущее время: 22-Фев 20:40

Часовой пояс: GMT + 4



Вы не можете начинать темы
Вы не можете отвечать на сообщения
Вы не можете редактировать свои сообщения
Вы не можете удалять свои сообщения
Вы не можете голосовать в опросах
Вы не можете прикреплять файлы к сообщениям
Вы не можете скачивать файлы