Ошибка
Загрузка...

Босс-молокосос / The Boss Baby (Том МакГрат ) [2017, мультфильм, комедия, семейный, BDRip 1080p] [iTunes]

Ответить на тему
 
Автор Сообщение

DENZEL519

Пол: Пол:Муж

Стаж: 6 лет 3 месяца

Сообщений: 904

СССР
Рейтинг

post 11-Июл-2017 14:51 0[+]

[Цитировать] 

Босс-молокосос / The Boss Baby
«Прирождённый лидер»

Год выпуска: 2017
Страна: США
Жанр: мультфильм, комедия, семейный
Продолжительность: 01:37:30
Перевод: Дублированный [iTunes]
Субтитры: Нет
Режиссер: Том МакГрат
Сценарий: Майкл МакКаллерс, Марла Фрэйзи
Продюсер: Ребекка Хантли, Рэмси Энн Наито, Джед Шлангер
Композитор: Стив Маццаро, Ханс Циммер
Монтаж: Джеймс Райан
В ролях: Фёдор Бондарчук (Boss Baby), Дмитрий Семенов (Tim), Евгений Иванов (Adult Tim рассказчик), Игорь Мосюк (Francis Francis), Дмитрий Кошмин (Dad), Юлия Левакова (Mom), Давид Бродский (Eugene), Вадим Никитин (Wizzie), Александр Матвеев (Jimbo), Полина Рудоманенко (Staci), Арсений Рогов (Triplets), Елена Мелешкова (Big Boss Baby)



Описание: Эта актуальная во все времена история для взрослых и детей рассказывается от лица семилетнего брата новорожденного — фантазера Тима, который ревнует его к родителям. Но главный герой — совсем не простой ребенок, он обладает лидерскими задатками, уже носит деловые костюмы и во всем видит бизнес-задачу.Однажды Тим узнает о готовящемся заговоре, целью которого является уничтожение любви, и организовал его директор компании «Puppy Co». Но одному Тиму не по силам его остановить. Мальчику предстоит объединиться со своим «нелюбимым» братом, чтобы спасти родителей и вернуть порядок на Земле.


Качество: BDRip 1080p
Формат: MKV
Видео кодек: AVC
Аудио кодек: AC3
Видео: 1920x816 (2.35:1), 23.976 fps, AVC, 6 512 Kbps
Аудио: Аудио #1: AC3, 384 Kbps, 48.0 KHz, 6 ch [Rus]
Аудио #2: DTS, 1 510 Kbps, 48.0 KHz, 6 ch [Eng]


Код:

General
Unique ID                                : 214136860964075635359786216029462938917 (0xA119425FB36E9AB997C2F5A5EFF74525)
Complete name                            : The.Boss.Baby.2017.BDRip.1080p.mkv
Format                                   : Matroska
Format version                           : Version 4 / Version 2
File size                                : 5.73 GiB
Duration                                 : 1h 37mn
Overall bit rate                         : 8 407 Kbps
Encoded date                             : UTC 2017-07-09 17:58:35
Writing application                      : mkvmerge v13.0.0 ('The Juggler') 64bit
Writing library                          : libebml v1.3.4 + libmatroska v1.4.5
DURATION                                 : 01:37:30.816000000
NUMBER_OF_FRAMES                         : 182838
NUMBER_OF_BYTES                          : 280839168
_STATISTICS_WRITING_APP                  : mkvmerge v13.0.0 ('The Juggler') 64bit
_STATISTICS_WRITING_DATE_UTC             : 2017-07-09 17:58:35
_STATISTICS_TAGS                         : BPS DURATION NUMBER_OF_FRAMES NUMBER_OF_BYTES

Video
ID                                       : 1
Format                                   : AVC
Format/Info                              : Advanced Video Codec
Format profile                           : High@L4.1
Format settings, CABAC                   : Yes
Format settings, ReFrames                : 5 frames
Codec ID                                 : V_MPEG4/ISO/AVC
Duration                                 : 1h 37mn
Bit rate                                 : 6 512 Kbps
Width                                    : 1 920 pixels
Height                                   : 816 pixels
Display aspect ratio                     : 2.35:1
Frame rate mode                          : Constant
Frame rate                               : 23.976 fps
Color space                              : YUV
Chroma subsampling                       : 4:2:0
Bit depth                                : 8 bits
Scan type                                : Progressive
Bits/(Pixel*Frame)                       : 0.173
Stream size                              : 4.32 GiB (75%)
Writing library                          : x264 core 150 r2833 df79067
Encoding settings                        : cabac=1 / ref=5 / deblock=1:0:0 / analyse=0x3:0x133 / me=umh / subme=7 / psy=1 / psy_rd=1.00:0.00 / mixed_ref=1 / me_range=16 / chroma_me=1 / trellis=1 / 8x8dct=1 / cqm=0 / deadzone=21,11 / fast_pskip=0 / chroma_qp_offset=-2 / threads=24 / lookahead_threads=4 / sliced_threads=0 / nr=0 / decimate=1 / interlaced=0 / bluray_compat=0 / constrained_intra=0 / bframes=3 / b_pyramid=2 / b_adapt=1 / b_bias=0 / direct=1 / weightb=1 / open_gop=0 / weightp=2 / keyint=250 / keyint_min=23 / scenecut=40 / intra_refresh=0 / rc_lookahead=40 / rc=2pass / mbtree=1 / bitrate=6512 / ratetol=1.0 / qcomp=0.60 / qpmin=0 / qpmax=69 / qpstep=4 / cplxblur=20.0 / qblur=0.5 / ip_ratio=1.40 / aq=1:1.00
Language                                 : English
Default                                  : Yes
Forced                                   : No
DURATION                                 : 01:37:30.813000000
NUMBER_OF_FRAMES                         : 140279
NUMBER_OF_BYTES                          : 4762413724
_STATISTICS_WRITING_APP                  : mkvmerge v13.0.0 ('The Juggler') 64bit
_STATISTICS_WRITING_DATE_UTC             : 2017-07-09 17:58:35
_STATISTICS_TAGS                         : BPS DURATION NUMBER_OF_FRAMES NUMBER_OF_BYTES

Audio #1
ID                                       : 2
Format                                   : AC-3
Format/Info                              : Audio Coding 3
Mode extension                           : CM (complete main)
Format settings, Endianness              : Big
Codec ID                                 : A_AC3
Duration                                 : 1h 37mn
Bit rate mode                            : Constant
Bit rate                                 : 384 Kbps
Channel(s)                               : 6 channels
Channel positions                        : Front: L C R, Side: L R, LFE
Sampling rate                            : 48.0 KHz
Bit depth                                : 16 bits
Compression mode                         : Lossy
Stream size                              : 268 MiB (5%)
Language                                 : Russian
Default                                  : Yes
Forced                                   : No

Audio #2
ID                                       : 3
Format                                   : DTS
Format/Info                              : Digital Theater Systems
Format profile                           : ES
Codec ID                                 : A_DTS
Duration                                 : 1h 37mn
Bit rate mode                            : Constant
Bit rate                                 : 1 510 Kbps
Channel(s)                               : 6 channels
Channel positions                        : Front: L C R, Side: L R, LFE
Sampling rate                            : 48.0 KHz
Bit depth                                : 24 bits
Compression mode                         : Lossy
Stream size                              : 1.03 GiB (18%)
Language                                 : English
Default                                  : No
Forced                                   : No

Menu
00:00:00.000                             : en:00:00:00.000
00:03:45.892                             : en:00:03:45.892
00:08:58.288                             : en:00:08:58.288
00:11:45.914                             : en:00:11:45.914
00:14:59.565                             : en:00:14:59.565
00:19:38.219                             : en:00:19:38.219
00:22:52.788                             : en:00:22:52.788
00:28:27.247                             : en:00:28:27.247
00:30:26.116                             : en:00:30:26.116
00:33:45.482                             : en:00:33:45.482
00:36:57.257                             : en:00:36:57.257
00:39:18.356                             : en:00:39:18.356
00:42:35.344                             : en:00:42:35.344
00:46:20.611                             : en:00:46:20.611
00:51:37.720                             : en:00:51:37.720
00:53:25.285                             : en:00:53:25.285
00:56:28.719                             : en:00:56:28.719
00:59:35.405                             : en:00:59:35.405
01:04:03.173                             : en:01:04:03.173
01:08:15.758                             : en:01:08:15.758
01:11:29.911                             : en:01:11:29.911
01:16:25.247                             : en:01:16:25.247
01:23:10.110                             : en:01:23:10.110
01:27:36.960                             : en:01:27:36.960

» Первый трейлер к фильму вышел 16 октября в День Босса — профессиональный праздник руководителей всех уровней, от бригадира до президента.

» Фраза Босса-молокососа «Печеньку на дорожку» пародирует знаменитую фразу Алека Болдуина из фильма «Гленгарри Глен Росс (Американцы)» (Джеймс Фоули, 1992) «Кофейку на посошок».

» Рассказчиком в мультфильме выступает Тоби Магуайр, актёр, озвучивающий Тима в зрелом возрасте.

Бюджет: $125 000 000
Сборы в США: $173 913 074
Сборы в мире: + $322 870 168 = $496 783 242
Сборы в России: $27 102 747
Зрители: Россия 7.15 млн
Премьера (мир): 12 марта 2017
Премьера (РФ): 23 марта 2017
Рейтинг MPAA: Рекомендуется присутствие родителей



Время раздачи: 24/7 (до появления первых 3-5 скачавших)
© Оформление by DENZEL519 for http://tapochek.net


info [Профиль]  [ЛС] 

ofrank0

Пол: Пол:Муж

Стаж: 8 лет 1 месяц

Сообщений: 2600

Французские Юж. и Антарктич. Тер-рии
Рейтинг

post 11-Июл-2017 15:55 (спустя 1 час 3 минуты) [-]-3[+]

[Цитировать] 

И здесь Бондарчук.

_________________
info [Профиль]  [ЛС] 

Dimonandroid

Пол: Пол:Муж

Стаж: 5 лет 6 месяцев

Сообщений: 132

Кокосовые острова
Рейтинг

post 11-Июл-2017 18:02 (спустя 2 часа 7 минут) [-]-2[+]

[Цитировать] 

ofrank0 писал(а):

И здесь Бондарчук.
а почему бы и нет)

_________________
больше минусов - это актуально.
info [Профиль]  [ЛС] 

Nikohorse

Стаж: 4 года 2 месяца

Сообщений: 169

Мексика
Рейтинг

post 11-Июл-2017 19:54 (спустя 1 час 51 минута) [-]0[+]

[Цитировать] 

Совсем детский или для всех возрастов?

_________________
info [Профиль]  [ЛС] 

eraser1000

Пол: Пол:Муж

Стаж: 8 лет 6 месяцев

Сообщений: 54

Россия
Рейтинг

post 11-Июл-2017 20:48 (спустя 54 минуты) [-]0[+]

[Цитировать] 

Nikohorse писал(а):

Совсем детский или для всех возрастов?
Моя пятилетняя дочь от мультфильма в восторге, мне тоже очень понравился.

_________________
Death is only the beginning...
info [Профиль]  [ЛС] 

stiv_sigmal

Стаж: 3 года 9 месяцев

Сообщений: 127

Рейтинг

post 13-Июл-2017 15:52 (спустя 1 день 19 часов) [-]1[+]

[Цитировать] 

Nikohorse писал(а):

Совсем детский или для всех возрастов?
Я б сказал, фильм для детей и родителей (поумиляться). Подросткам, молодёжи и бездетным взрослым вряд ли зайдёт, по моему ощущению. К тому же, как обычно, всю суть мультфильма передали в трейлере, а всё что кроме трейлера — просто навертели на него.
info [Профиль]  [ЛС] 
Показать сообщения:    
Ответить на тему

Текущее время: 21-Окт 21:44

Часовой пояс: GMT + 4



Вы не можете начинать темы
Вы не можете отвечать на сообщения
Вы не можете редактировать свои сообщения
Вы не можете удалять свои сообщения
Вы не можете голосовать в опросах
Вы не можете прикреплять файлы к сообщениям
Вы не можете скачивать файлы