Ошибка

Новая Игра!! / New Game!! [TV] [1-1 из 12] [2017] [повседневность, комедия] [HDTV] [720p] [Профессиональный]

Ответить на тему
 
Автор Сообщение

NovA_JKE

Пол: Пол:Жен

Стаж: 7 лет 4 месяца

Сообщений: 497

Антарктида
Рейтинг

post 10-Июл-2017 19:51 0[+]

[Цитировать] 

pic="http://savepic.ru/14765822.gif"


Новая Игра!! | New Game!!

Год выпуска: 2017
Страна: Япония
Жанр: повседневность, комедия
Тип: TV
Продолжительность: 12 эп. x 25 мин.
Студия:
Режиссер: Фудзивара Ёсиюки
Автор оригинала: Токуно Сётаро
Релиз: студия Kansai
Перевод: Студийная Банда
Озвучивание: многоголосое закадровое [Студийная Банда]


Описание: Аоба Сузуказе – недавняя выпускница, которую, однако, часто принимают за ученицу средней школы. Она устраивается в компанию по разработке компьютерных игр, и в этой истории будут рассказаны ее «милые шалости».
Дополнительная информация:


Качество: HDTV
Формат: mkv
Видео: h.264; 8 bit; 1280x720; 23,976 fps; ~1058 kbps
Аудио:
  1. RU: AAC-LC 2.0, 48 kHz, ~256 kbps
Субтитры: нет
  1. Эпизод 01.

Код:

Общее
Уникальный идентификатор                 : 207722587381044643835840098152939450950 (0x9C45EA450F685340A39C008C8976F246)
Полное имя                               : P:\NovA_JKE\Аниме\!DL New Game [TV-2] (Новая игра) [HDTV, Студия KANSAI]\[KANSAI] New Game!! - 01 [720p].mkv
Формат                                   : Matroska
Версия формата                           : Version 4 / Version 2
Размер файла                             : 224 Мбайт
Продолжительность                        : 23 м. 46 с.
Общий поток                              : 1315 Кбит/сек
Дата кодирования                         : UTC 2017-07-10 10:08:44
Программа кодирования                    : mkvmerge v13.0.0 ('The Juggler') 64bit
Библиотека кодирования                   : libebml v1.3.4 + libmatroska v1.4.5

Видео
Идентификатор                            : 1
Формат                                   : AVC
Формат/Информация                        : Advanced Video Codec
Профиль формата                          : High 10@L5
Параметр CABAC формата                   : Да
Параметр ReFrames формата                : 16 кадров
Идентификатор кодека                     : V_MPEG4/ISO/AVC
Продолжительность                        : 23 м. 46 с.
Битрейт                                  : 1058 Кбит/сек
Ширина                                   : 1280 пикселей
Высота                                   : 720 пикселей
Соотношение сторон                       : 16:9
Режим частоты кадров                     : Постоянный
Частота кадров                           : 23,976 (24000/1001) кадра/сек
Цветовое пространство                    : YUV
Субдискретизация насыщенности            : 4:2:0
Битовая глубина                          : 10 бит
Тип развёртки                            : Прогрессивная
Бит/(Пиксели*Кадры)                      : 0.048
Размер потока                            : 180 Мбайт (80%)
Заголовок                                : https://kansai.studio
Библиотека кодирования                   : x264 core 148 r2721+55 e19946b t_mod_Custom [10-bit@all X86_64]
Настройки программы                      : cabac=1 / ref=16 / deblock=1:1:1 / analyse=0x3:0x133 / me=umh / subme=10 / psy=1 / fade_compensate=0.60 / psy_rd=0.40:0.00 / mixed_ref=1 / me_range=24 / chroma_me=1 / trellis=2 / 8x8dct=1 / cqm=0 / deadzone=21,11 / fast_pskip=1 / chroma_qp_offset=-2 / threads=4 / lookahead_threads=1 / sliced_threads=0 / nr=0 / decimate=1 / interlaced=0 / bluray_compat=0 / constrained_intra=0 / fgo=0 / bframes=10 / b_pyramid=2 / b_adapt=2 / b_bias=0 / direct=3 / weightb=1 / open_gop=0 / weightp=2 / keyint=250 / keyint_min=23 / scenecut=40 / intra_refresh=0 / rc_lookahead=60 / rc=crf / mbtree=1 / crf=17.0000 / qcomp=0.70 / qpmin=0:0:0 / qpmax=81:81:81 / qpstep=4 / ip_ratio=1.40 / aq=3:0.70 / aq-sensitivity=10.00 / aq-factor=1.00:1.00:1.00 / aq2=0 / aq3=0
Язык                                     : Japanese
Default                                  : Да
Forced                                   : Нет
Цветовой диапазон                        : Limited
Коэффициенты матрицы                     : BT.709

Аудио
Идентификатор                            : 2
Формат                                   : AAC
Формат/Информация                        : Advanced Audio Codec
Профиль формата                          : LC
Идентификатор кодека                     : A_AAC
Продолжительность                        : 23 м. 46 с.
Битрейт                                  : 255 Кбит/сек
Каналы                                   : 2 канала
Расположение каналов                     : Front: L R
Частота                                  : 48,0 КГц
Частота кадров                           : 46,875 кадров/сек (1024 spf)
Метод сжатия                             : С потерями
Размер потока                            : 43,3 Мбайт (19%)
Заголовок                                : KANSAI Studio
Язык                                     : Russian
Default                                  : Да
Forced                                   : Нет
info [Профиль]  [ЛС] 
Показать сообщения:    
Ответить на тему

Текущее время: 20-Июл 18:46

Часовой пояс: GMT + 4



Вы не можете начинать темы
Вы не можете отвечать на сообщения
Вы не можете редактировать свои сообщения
Вы не можете удалять свои сообщения
Вы не можете голосовать в опросах
Вы не можете прикреплять файлы к сообщениям
Вы не можете скачивать файлы