Ошибка

Твоё имя / Kimi no Na wa / Your Name (Макото Синкай) [Movie] [2016, романтика, драма, школа, сверхъестественное, WEBRip] [720] [Хардсаб] [RUS(int), JAP]

Ответить на тему
 
Автор Сообщение

riorao

Пол: Пол:Муж

Стаж: 21 день

Сообщений: 6

Россия
Рейтинг

post 09-Июл-2017 23:07 4[+]

[Цитировать] 

Страна: Япония
Жанр: аниме, романтика, драма, школа, сверхъестественное
Продолжительность: 110 мин.
Год выпуска: 2016
Озвучание: многоголосое, закадровое (AlexFilm)

Режиссёр: Макото Синкай
Сценарий: Макото Синкай, Кларк Чэн
Описание: Девушка из японской провинции и юноша из Токио обнаруживают, что между ними есть странная необъяснимая связь — они начинают «чувствовать» друг друга через сны.
Примечание: данный релиз, как и все имеющиеся в сети на данный момент, сделан на основе утекшей в сеть служебной копии фильма. Лучшее качество видео без английского и китайского хардсаба стоит ждать только после выхода выхода фильма на Blu-ray в сентябре 2017.

Релиз:

Перевод: Константин Кривоногов
Монтаж и сведение звука: Михаил Суслов
Озвучание:
Алёна Андронова
Екатерина Муравицкая
Светлана Чистохина
Таисия Тришина
Артем Бахтин
Дмитрий Лунев
Станислав Черсков
Роман Сопко
Михаил Суслов

Сэмпл: http://sendfile.su/1306967
Качество: WEBRip
Тип релиза: английский хардсаб
Формат: MKV
Видео: H.264, 1280x720 (16:9), 23.976 fps, ~1000 kbps, 8 bit
Аудио 1: [RUS] 48 kHz, AC3, 2 ch, 192 kbps - в контейнере
Аудио 2: [JAP] 48 kHz, AC3, 2 ch, 192 kbps - в контейнере
Формат : Matroska
Версия формата : Version 4 / Version 2
Размер файла : 1,03 Гбайт
Продолжительность : 1 ч. 46 м.
Общий поток : 1385 Кбит/сек
Название фильма : Kimi no Na wa @ AlexFilm
Дата кодирования : UTC 2017-02-08 19:53:49
Программа кодирования : mkvmerge v7.1.0 ('Good Love') 64bit built on Jul 27 2014 13:06:55
Библиотека кодирования : libebml v1.3.0 + libmatroska v1.4.1

Видео
Идентификатор : 1
Формат : AVC
Формат/Информация : Advanced Video Codec
Профиль формата : Main@L4
Параметр CABAC формата : Да
Параметр ReFrames формата : 4 кадра
Идентификатор кодека : V_MPEG4/ISO/AVC
Продолжительность : 1 ч. 46 м.
Битрейт : 1000 Кбит/сек
Ширина : 1280 пикселей
Высота : 720 пикселей
Соотношение сторон : 16:9
Режим частоты кадров : Постоянный
Частота кадров : 29,970 (30000/1001) кадров/сек
Цветовое пространство : YUV
Субдискретизация насыщенности : 4:2:0
Битовая глубина : 8 бит
Тип развёртки : Прогрессивная
Бит/(Пиксели*Кадры) : 0.036
Размер потока : 741 Мбайт (70%)
Библиотека кодирования : x264 core 142 r2479 dd79a61
Настройки программы : cabac=1 / ref=3 / deblock=1:-1:-1 / analyse=0x1:0x111 / me=hex / subme=7 / psy=1 / psy_rd=1.00:0.15 / mixed_ref=1 / me_range=16 / chroma_me=1 / trellis=1 / 8x8dct=0 / cqm=0 / deadzone=21,11 / fast_pskip=1 / chroma_qp_offset=-3 / threads=6 / lookahead_threads=1 / sliced_threads=0 / nr=0 / decimate=1 / interlaced=0 / bluray_compat=0 / constrained_intra=0 / bframes=3 / b_pyramid=2 / b_adapt=1 / b_bias=0 / direct=1 / weightb=1 / open_gop=0 / weightp=2 / keyint=300 / keyint_min=30 / scenecut=40 / intra_refresh=0 / rc_lookahead=40 / rc=2pass / mbtree=1 / bitrate=1000 / ratetol=1.0 / qcomp=0.60 / qpmin=0 / qpmax=69 / qpstep=4 / cplxblur=20.0 / qblur=0.5 / vbv_maxrate=20000 / vbv_bufsize=25000 / nal_hrd=none / filler=0 / ip_ratio=1.40 / aq=1:1.00
Default : Да
Forced : Нет
Цветовой диапазон : Limited
Основные цвета : BT.709
Характеристики трансфера : BT.709
Коэффициенты матрицы : BT.709

Аудио #1
Идентификатор : 2
Формат : AC-3
Формат/Информация : Audio Coding 3
Расширение режима : CM (complete main)
Параметр Endianness формата : Big
Идентификатор кодека : A_AC3
Продолжительность : 1 ч. 46 м.
Вид битрейта : Постоянный
Битрейт : 192 Кбит/сек
Каналы : 2 канала
Расположение каналов : Front: L R
Частота : 48,0 КГц
Частота кадров : 31,250 кадров/сек (1536 spf)
Метод сжатия : С потерями
Размер потока : 146 Мбайт (14%)
Заголовок : DD2.0 AlexFilm
Язык : Russian
Default : Да
Forced : Нет

Аудио #2
Идентификатор : 3
Формат : AC-3
Формат/Информация : Audio Coding 3
Расширение режима : CM (complete main)
Параметр Endianness формата : Big
Идентификатор кодека : A_AC3
Продолжительность : 1 ч. 46 м.
Вид битрейта : Постоянный
Битрейт : 192 Кбит/сек
Каналы : 2 канала
Расположение каналов : Front: L R
Частота : 48,0 КГц
Частота кадров : 31,250 кадров/сек (1536 spf)
Метод сжатия : С потерями
Размер потока : 146 Мбайт (14%)
Заголовок : DD2.0 Original
Язык : Japanese
Default : Нет
Forced : Нет
http://tapochek.net/viewtopic.php?t=192344 - размер видео, наличие альтернативной озвучки
info [Профиль]  [ЛС] 

bvak

Пол: Пол:Муж

Стаж: 6 лет

Сообщений: 336

Украина
Рейтинг

post 10-Июл-2017 14:44 (спустя 15 часов) [-]-2[+]

[Цитировать] 

А 1080 будет?
info [Профиль]  [ЛС] 

Fiend

Пол: Пол:Муж

Стаж: 8 лет 3 месяца

Сообщений: 145

Украина
Рейтинг

post 10-Июл-2017 15:41 (спустя 56 минут) [-]0[+]

[Цитировать] 

нет сил уже сентября ждать (
info [Профиль]  [ЛС] 

DeathBolt

Стаж: 8 лет

Сообщений: 27

Рейтинг

post 10-Июл-2017 15:44 (спустя 3 минуты) [-]5[+]

[Цитировать] 

Буду тренировать силу воли и ждать сентября =)
info [Профиль]  [ЛС] 

Jamato

Пол: Пол:Муж

Стаж: 7 лет 5 месяцев

Сообщений: 805

Украина
Рейтинг

post 10-Июл-2017 18:00 (спустя 2 часа 16 минут) [-]1[+]

[Цитировать] 

Этот дерьмовый рип просто везде уже. Зачем постить?

_________________
Экономлю энергию и деньги на С.С.С.Р.
Сигаретах.Спиртном.Сексе.Радости...(с)闇倭
info [Профиль]  [ЛС] 

Silver Soul

Пол: Пол:Муж

Стаж: 7 лет 5 месяцев

Сообщений: 305

Предупреждений: 1

Россия
Рейтинг

post 10-Июл-2017 19:16 (спустя 1 час 16 минут) [-]3[+]

[Цитировать] 

Цитата:

Blu-ray в сентябре 2017
В каком сентябре? В Японии 26 июля на дисках выходит.
info [Профиль]  [ЛС] 

riorao

Пол: Пол:Муж

Стаж: 21 день

Сообщений: 6

Россия
Рейтинг

post 10-Июл-2017 21:57 (спустя 2 часа 40 минут) [-]1[+]

[Цитировать] 

Jamato писал(а):

Этот дерьмовый рип просто везде уже. Зачем постить?
ну на тапках его не было, а озвучка хорошая. Я бы и сам подождал блюрейку, но вчера не выдержал и посмотрел. Синкай как всегда жжот.
info [Профиль]  [ЛС] 

dante3732

Пол: Пол:Муж

Стаж: 5 лет 6 месяцев

Сообщений: 151

Россия
Рейтинг

post 10-Июл-2017 22:59 (спустя 1 час 1 минута) [-]0[+]

[Цитировать] 

riorao
Я 2 раза уже смотрел, один раз с японским хардсабом ещё хуже качестов и один с этим!
info [Профиль]  [ЛС] 

Valington

Пол: Пол:Муж

Стаж: 7 лет 10 месяцев

Сообщений: 575

Исландия
Рейтинг

post 11-Июл-2017 03:16 (спустя 4 часа) [-]0[+]

[Цитировать] 

хм...а раньше не было похожей короткометражки?

_________________
Win 10 Pro 64x, intel i5-3470 3.20GHz, 8GB RAM, Ati Radeon HD 6950 2GB + CrossFire Ati Radeon HD 6950 1GB (8х\8х)
info [Профиль]  [ЛС] 

xbreed

Пол: Пол:Муж

Стаж: 7 лет 10 месяцев

Сообщений: 42

Россия
Рейтинг

post 11-Июл-2017 08:43 (спустя 5 часов) [-]0[+]

[Цитировать] 

Silver Soul писал(а):

Цитата:

Blu-ray в сентябре 2017
В каком сентябре? В Японии 26 июля на дисках выходит.
истари в сентябре в РФ будут крутить в кинотеатрах. ВРОДЕ КАК
info [Профиль]  [ЛС] 
Показать сообщения:    
Ответить на тему

Текущее время: 26-Июл 20:40

Часовой пояс: GMT + 4



Вы не можете начинать темы
Вы не можете отвечать на сообщения
Вы не можете редактировать свои сообщения
Вы не можете удалять свои сообщения
Вы не можете голосовать в опросах
Вы не можете прикреплять файлы к сообщениям
Вы не можете скачивать файлы