Ошибка

Сделанный в Бездне / Made in Abyss [TV] [1-3 из 12] [2017] [приключения, фэнтези] [WEBRip] [720p] [Профессиональный]

Ответить на тему
 
Автор Сообщение

NovA_JKE

Пол: Пол:Жен

Стаж: 7 лет 4 месяца

Сообщений: 510

Антарктида
Рейтинг

post 09-Июл-2017 13:28 1[+]

[Цитировать] 

pic="http://savepic.ru/14760890.gif"


Сделанный в Бездне | Made in Abyss

Год выпуска: 2017
Страна: Япония
Жанр: приключения, фэнтези
Тип: TV
Продолжительность: 12 эп. x 25 мин.
Студия:
Режиссер: Кодзима Масаюки
Автор оригинала: Цукуси Акихито
Релиз: студия Kansai
Перевод: М...
Озвучивание: многоголосое закадровое


Описание: Огромная пещерная система, известная как Бездна, является последним неисследованным местом в мире. В этой титанической яме обитают странные и удивительные существа. Она полна таинственных древних реликвий, предназначение которых неизвестно современному человеку. Поколения смелых авантюристов были затянуты ее загадочными глубинами. Со временем достаточно храбрые, чтобы исследовать опасную яму, стали известны как «Исследователи Бездны». В Оос, городе на краю Бездны, живет маленькая сирота по имени Рико, которая мечтает стать великим пещерным налетчиком, каким была ее мать, и разгадать великую тайну расщелины. Однажды, исследуя темные глубины, она натыкается на маленького мальчика, который оказывается роботом...
Дополнительная информация:


Качество: WEBRip
Формат: mkv
Видео: h.264; 8 bit; 1280x720; 23,976 fps; ~1208 kbps
Аудио:
  1. RU: AAC-LC 2.0, 48 kHz, ~256 kbps
Субтитры: нет
  1. Город Великой Ямы.
  2. Праздник воскрешения.
  3. Отправление.

Код:

Общее
Уникальный идентификатор                 : 212313948504339438800774227540645567949 (0x9FBA2DD9BB1B788EAD67C45290C0DDCD)
Полное имя                               : P:\NovA_JKE\Аниме\!DL Made in Abyss (Сделанный в Бездне) [WEBRip 720p, Студия KANSAI]\[KANSAI] Made in Abyss - 01 [720p].mkv
Формат                                   : Matroska
Версия формата                           : Version 4 / Version 2
Размер файла                             : 260 Мбайт
Продолжительность                        : 24 м. 40 с.
Режим общего битрейта                    : Переменный
Общий поток                              : 1473 Кбит/сек
Дата кодирования                         : UTC 2017-07-08 21:21:37
Программа кодирования                    : mkvmerge v13.0.0 ('The Juggler') 64bit
Библиотека кодирования                   : libebml v1.3.4 + libmatroska v1.4.5

Видео
Идентификатор                            : 1
Формат                                   : AVC
Формат/Информация                        : Advanced Video Codec
Профиль формата                          : High@L3.1
Параметр CABAC формата                   : Да
Параметр ReFrames формата                : 5 кадров
Идентификатор кодека                     : V_MPEG4/ISO/AVC
Продолжительность                        : 24 м. 40 с.
Вид битрейта                             : Переменный
Битрейт                                  : 1208 Кбит/сек
Максимальный битрейт                     : 4500 Кбит/сек
Ширина                                   : 1280 пикселей
Высота                                   : 720 пикселей
Соотношение сторон                       : 16:9
Режим частоты кадров                     : Постоянный
Частота кадров                           : 23,976 (24000/1001) кадра/сек
Цветовое пространство                    : YUV
Субдискретизация насыщенности            : 4:2:0
Битовая глубина                          : 8 бит
Тип развёртки                            : Прогрессивная
Бит/(Пиксели*Кадры)                      : 0.055
Размер потока                            : 213 Мбайт (82%)
Заголовок                                : https://kansai.studio
Язык                                     : Japanese
Default                                  : Да
Forced                                   : Нет
Цветовой диапазон                        : Limited
Основные цвета                           : BT.709
Характеристики трансфера                 : BT.709
Коэффициенты матрицы                     : BT.709

Аудио
Идентификатор                            : 2
Формат                                   : AAC
Формат/Информация                        : Advanced Audio Codec
Профиль формата                          : LC
Идентификатор кодека                     : A_AAC
Продолжительность                        : 24 м. 40 с.
Битрейт                                  : 265 Кбит/сек
Каналы                                   : 2 канала
Расположение каналов                     : Front: L R
Частота                                  : 48,0 КГц
Частота кадров                           : 46,875 кадров/сек (1024 spf)
Метод сжатия                             : С потерями
Размер потока                            : 46,4 Мбайт (18%)
Заголовок                                : KANSAI Studio
Язык                                     : Russian
Default                                  : Да
Forced                                   : Нет
info [Профиль]  [ЛС] 

Ritsu

Пол: Пол:Муж

Стаж: 6 лет

Сообщений: 880

Австралия
Рейтинг

post 11-Июл-2017 01:49 (спустя 1 день 12 часов) [-]3[+]

[Цитировать] 

Какая милая рисовка.

_________________
Флудите вместе с Рицу и будет вам счастье! ^__^

"...Зажжем рок в этой дыре!.."
info [Профиль]  [ЛС] 

NovA_JKE

Пол: Пол:Жен

Стаж: 7 лет 4 месяца

Сообщений: 510

Антарктида
Рейтинг

post 19-Июл-2017 21:07 (спустя 8 дней) [-]0[+]

[Цитировать] 

Добавлена 2-я серия.
info [Профиль]  [ЛС] 

NovA_JKE

Пол: Пол:Жен

Стаж: 7 лет 4 месяца

Сообщений: 510

Антарктида
Рейтинг

post 24-Июл-2017 22:42 (спустя 5 дней) [-]0[+]

[Цитировать] 

Добавлена 3-я серия.
info [Профиль]  [ЛС] 
Показать сообщения:    
Ответить на тему

Текущее время: 26-Июл 12:39

Часовой пояс: GMT + 4



Вы не можете начинать темы
Вы не можете отвечать на сообщения
Вы не можете редактировать свои сообщения
Вы не можете удалять свои сообщения
Вы не можете голосовать в опросах
Вы не можете прикреплять файлы к сообщениям
Вы не можете скачивать файлы