Ошибка

Сводники Духов - Лисьи Свахи / Enmusubi no Youko-chan / Huyao Xiao Hongniang [TV] [1-4 из 24] [2017] [драма, фэнтези, романтика] [WEBRip] [720p] [Профессиональный]

Ответить на тему
 
Автор Сообщение

NovA_JKE

Пол: Пол:Жен

Стаж: 7 лет 4 месяца

Сообщений: 512

Антарктида
Рейтинг

post 09-Июл-2017 00:27 0[+]

[Цитировать] 

pic="http://savepic.ru/14748797.png"


Сводники Духов - Лисьи Свахи | Enmusubi no Youko-chan | Huyao Xiao Hongniang

Год выпуска: 2017
Страна: Китай
Жанр: драма, фэнтези, романтика
Тип: TV
Продолжительность: 24 эп. x 25 мин.
Студия:
Режиссер: Ван Син
Автор оригинала: Сяо Син
Релиз: студия Kansai
Перевод: Студийная Банда
Озвучивание: многоголосое закадровое [Студийная Банда]


Описание: В этом мире лисы занимаются любовными делами, то есть работают свахами.
История повествует о маленькой лисичке по имени Сусу Тушан, которая изо всех сил желает полезной — стать полноценным лисьим духом, что не просто, ведь у нее мало духовной силы и практически отсутствует лисий шарм. Ей был дан единственный шанс — первое в ее жизни задание. Однако, злобные сестрицы пытаются ей помешать. Во время выполнения задания Сусу встречает парня по имени Бай Юэчу, который доблестно берется ей помогать.

Японская версия. Один эпизод японской весии состоит из двух эпизодов китайской версии с небольшой перерисовкой в некоторых сценах.
Дополнительная информация:


Качество: WEBRip
Формат: mkv
Видео: h.264; 8 bit; 1280x720; 23,976 fps; ~2430 kbps
Аудио:
  1. RU: AAC-LC 2.0, 48 kHz, ~256 kbps
Субтитры: нет
  1. Fox Spirit Suusu.
  2. Ожившие воспоминания.
  3. Обещанные сокровища.
  4. Их чувства.

Код:

Общее
Уникальный идентификатор                 : 174282817191743704749050257110911978818 (0x831DA64EF315E673B51B19F211EC8D42)
Полное имя                               : P:\NovA_JKE\Аниме\!DL Enmusubi no Youko-chan (Сводники Духов - Лисьи Свахи) [WEBRip 720p, Студия KANSAI]\[KANSAI] Enmusubi no Youko-chan - 01 [720p].mkv
Формат                                   : Matroska
Версия формата                           : Version 4 / Version 2
Размер файла                             : 460 Мбайт
Продолжительность                        : 23 м. 41 с.
Общий поток                              : 2716 Кбит/сек
Дата кодирования                         : UTC 2017-07-04 13:33:36
Программа кодирования                    : mkvmerge v13.0.0 ('The Juggler') 64bit
Библиотека кодирования                   : libebml v1.3.4 + libmatroska v1.4.5

Видео
Идентификатор                            : 1
Формат                                   : AVC
Формат/Информация                        : Advanced Video Codec
Профиль формата                          : High@L4
Параметр CABAC формата                   : Да
Параметр ReFrames формата                : 6 кадров
Идентификатор кодека                     : V_MPEG4/ISO/AVC
Продолжительность                        : 23 м. 41 с.
Битрейт                                  : 2430 Кбит/сек
Ширина                                   : 1280 пикселей
Высота                                   : 720 пикселей
Соотношение сторон                       : 16:9
Режим частоты кадров                     : Постоянный
Частота кадров                           : 23,976 (24000/1001) кадра/сек
Цветовое пространство                    : YUV
Субдискретизация насыщенности            : 4:2:0
Битовая глубина                          : 8 бит
Тип развёртки                            : Прогрессивная
Бит/(Пиксели*Кадры)                      : 0.110
Размер потока                            : 412 Мбайт (89%)
Заголовок                                : https://kansai.studio
Библиотека кодирования                   : x264 core 142
Настройки программы                      : cabac=1 / ref=6 / deblock=1:1:1 / analyse=0x3:0x113 / me=umh / subme=8 / psy=1 / psy_rd=0.40:0.00 / mixed_ref=1 / me_range=16 / chroma_me=1 / trellis=1 / 8x8dct=1 / cqm=0 / deadzone=21,11 / fast_pskip=1 / chroma_qp_offset=-2 / threads=10 / lookahead_threads=1 / sliced_threads=0 / nr=0 / decimate=1 / interlaced=0 / bluray_compat=0 / constrained_intra=0 / bframes=3 / b_pyramid=2 / b_adapt=2 / b_bias=0 / direct=3 / weightb=1 / open_gop=0 / weightp=2 / keyint=48 / keyint_min=24 / scenecut=40 / intra_refresh=0 / rc_lookahead=48 / rc=crf / mbtree=1 / crf=15.0 / qcomp=0.60 / qpmin=0 / qpmax=69 / qpstep=4 / vbv_maxrate=4000 / vbv_bufsize=6000 / crf_max=0.0 / nal_hrd=none / filler=0 / ip_ratio=1.40 / aq=1:0.60
Язык                                     : Japanese
Default                                  : Да
Forced                                   : Нет

Аудио
Идентификатор                            : 2
Формат                                   : AAC
Формат/Информация                        : Advanced Audio Codec
Профиль формата                          : LC
Идентификатор кодека                     : A_AAC
Продолжительность                        : 23 м. 41 с.
Битрейт                                  : 288 Кбит/сек
Каналы                                   : 2 канала
Расположение каналов                     : Front: L R
Частота                                  : 48,0 КГц
Частота кадров                           : 46,875 кадров/сек (1024 spf)
Метод сжатия                             : С потерями
Задержка видео                           : -83 мс.
Размер потока                            : 48,1 Мбайт (10%)
Заголовок                                : KANSAI Studio
Язык                                     : Russian
Default                                  : Да
Forced                                   : Нет
info [Профиль]  [ЛС] 

Roneshan

Пол: Пол:Муж

Стаж: 6 лет

Сообщений: 40

Рейтинг

post 09-Июл-2017 12:11 (спустя 11 часов) [-]1[+]

[Цитировать] 

Нынче китайцы все лучше и лучше анимацию клепают....и интересные задумки при этом делают.... осталось только всем перейти на формат получасовой а не 10 минутный)
info [Профиль]  [ЛС] 

NovA_JKE

Пол: Пол:Жен

Стаж: 7 лет 4 месяца

Сообщений: 512

Антарктида
Рейтинг

post 10-Июл-2017 19:57 (спустя 1 день 7 часов) [-]0[+]

[Цитировать] 

Добавлена 2-я серия.
info [Профиль]  [ЛС] 

NovA_JKE

Пол: Пол:Жен

Стаж: 7 лет 4 месяца

Сообщений: 512

Антарктида
Рейтинг

post 16-Июл-2017 22:04 (спустя 6 дней) [-]0[+]

[Цитировать] 

Добавлена 3-я серия.
info [Профиль]  [ЛС] 

NovA_JKE

Пол: Пол:Жен

Стаж: 7 лет 4 месяца

Сообщений: 512

Антарктида
Рейтинг

post 24-Июл-2017 22:46 (спустя 8 дней) [-]0[+]

[Цитировать] 

Добавлена 4-я серия.
info [Профиль]  [ЛС] 
Показать сообщения:    
Ответить на тему

Текущее время: 26-Июл 20:50

Часовой пояс: GMT + 4



Вы не можете начинать темы
Вы не можете отвечать на сообщения
Вы не можете редактировать свои сообщения
Вы не можете удалять свои сообщения
Вы не можете голосовать в опросах
Вы не можете прикреплять файлы к сообщениям
Вы не можете скачивать файлы