Ошибка
Загрузка...

Дайв!! / Dive!! [TV] [1-10 из 11] [2017] [спорт, комедия] [WEBRip] [720p] [Профессиональный] MVO Kansai

Ответить на тему
 
Автор Сообщение

NovA_JKE

Пол: Пол:Жен

Стаж: 7 лет 6 месяцев

Сообщений: 607

Антарктида
Рейтинг

post 08-Июл-2017 00:30 0[+]

[Цитировать] 

pic="https://image.ibb.co/dsqksF/dive.gif"


Дайв!! | Dive!!

Год выпуска: 2017
Страна: Япония
Жанр: спорт, комедия
Тип: TV
Продолжительность: 11 эп. x 25 мин.
Студия:
Режиссер: Судзуки Каору
Автор оригинала: Мори Это
Релиз: студия Kansai
Перевод: Ян Егоров
Озвучивание: многоголосое закадровое


Описание: Сюжет закручивается вокруг «Мизуки Дайвинг Центра», который из-за финансовых проблем вот-вот закроют. Но новый тренер клуба убеждает спонсорскую компанию повременить. Взамен, он обещает в следующем году представить одного из членов своей команды, который поедет на Олимпиаду в составе японской сборной.
Дополнительная информация:


Качество: WEBRip
Формат: mkv
Видео: h.264; 8 bit; 1280x720; 23,976 fps; ~1870 kbps
Аудио:
  1. RU: AAC-LC 2.0, 48 kHz, ~256 kbps
Субтитры: нет
  1. Погружение в синеву.
  2. Сосредоточенный дракон.
  3. Знакомьтесь: Шибуки.
  4. Сильнейший человек.
  5. Пасмурные дни.
  6. Алмазные глаза.
  7. Дорогие друзья.
  8. Да, я тебе завидую.
  9. Новый этап.
  10. Пробуждение зверя.

Код:

Общее
Уникальный идентификатор                 : 234321192919073842539448822206921541932 (0xB0489EC5BCDBAC0AB06A88BCBDA9892C)
Полное имя                               : P:\NovA_JKE\Аниме\!DL Dive!! (Дайв!!) [WEBRip 720p, Студия KANSAI]\[KANSAI] Dive!! TV - 01 [720p].mkv
Формат                                   : Matroska
Версия формата                           : Version 4 / Version 2
Размер файла                             : 351 Мбайт
Продолжительность                        : 22 м. 55 с.
Режим общего битрейта                    : Переменный
Общий поток                              : 2144 Кбит/сек
Дата кодирования                         : UTC 2017-07-07 17:16:22
Программа кодирования                    : mkvmerge v12.0.0 ('Trust / Lust') 64bit
Библиотека кодирования                   : libebml v1.3.4 + libmatroska v1.4.5
Attachments                              : OpenSans-Semibold.ttf

Видео
Идентификатор                            : 1
Формат                                   : AVC
Формат/Информация                        : Advanced Video Codec
Профиль формата                          : High@L3.1
Параметр CABAC формата                   : Да
Параметр ReFrames формата                : 5 кадров
Идентификатор кодека                     : V_MPEG4/ISO/AVC
Продолжительность                        : 22 м. 54 с.
Вид битрейта                             : Переменный
Битрейт                                  : 1870 Кбит/сек
Максимальный битрейт                     : 4500 Кбит/сек
Ширина                                   : 1280 пикселей
Высота                                   : 720 пикселей
Соотношение сторон                       : 16:9
Режим частоты кадров                     : Постоянный
Частота кадров                           : 23,976 (24000/1001) кадра/сек
Цветовое пространство                    : YUV
Субдискретизация насыщенности            : 4:2:0
Битовая глубина                          : 8 бит
Тип развёртки                            : Прогрессивная
Бит/(Пиксели*Кадры)                      : 0.085
Размер потока                            : 306 Мбайт (87%)
Заголовок                                : https://kansai.studio
Язык                                     : Japanese
Default                                  : Да
Forced                                   : Нет
Цветовой диапазон                        : Limited
Основные цвета                           : BT.709
Характеристики трансфера                 : BT.709
Коэффициенты матрицы                     : BT.709

Аудио
Идентификатор                            : 2
Формат                                   : AAC
Формат/Информация                        : Advanced Audio Codec
Профиль формата                          : LC
Идентификатор кодека                     : A_AAC
Продолжительность                        : 22 м. 55 с.
Битрейт                                  : 271 Кбит/сек
Каналы                                   : 2 канала
Расположение каналов                     : Front: L R
Частота                                  : 48,0 КГц
Частота кадров                           : 46,875 кадров/сек (1024 spf)
Метод сжатия                             : С потерями
Размер потока                            : 44,4 Мбайт (13%)
Заголовок                                : KANSAI Studio
Язык                                     : Russian
Default                                  : Да
Forced                                   : Нет
info [Профиль]  [ЛС] 

BakiDB

Пол: Пол:Муж

Стаж: 7 лет 5 месяцев

Сообщений: 120

Рейтинг

post 08-Июл-2017 10:40 (спустя 10 часов) [-]0[+]

[Цитировать] 

Это как гейский Всплеск? Или что-то годное на спортивную тему?
info [Профиль]  [ЛС] 

Qbot

Пол: Пол:Муж

Стаж: 7 лет 6 месяцев

Сообщений: 36

Бутан
Рейтинг

post 08-Июл-2017 16:43 (спустя 6 часов) [-]-1[+]

[Цитировать] 

Очень странное русское название. kolob_124
info [Профиль]  [ЛС] 

SEVER

Стаж: 6 лет 2 месяца

Сообщений: 1110

Рейтинг

post 08-Июл-2017 20:53 (спустя 4 часа) [-]-2[+]

[Цитировать] 

Qbot
Очень странное слово в русском языке этот ваш дайвинг.

_________________
Inter core i5 4670k, gtx 650 ti boost, 8 gb ram
info [Профиль]  [ЛС] 

Qbot

Пол: Пол:Муж

Стаж: 7 лет 6 месяцев

Сообщений: 36

Бутан
Рейтинг

post 08-Июл-2017 21:48 (спустя 54 минуты) [-]0[+]

[Цитировать] 

SEVER писал(а):

Qbot
Очень странное слово в русском языке этот ваш дайвинг.
Дайвинг? Аниме про дайверов? Я думал про прыжки в воду.
info [Профиль]  [ЛС] 

Ginshimo

Пол: Пол:Муж

Стаж: 7 лет 8 месяцев

Сообщений: 19

Рейтинг

post 09-Июл-2017 18:22 (спустя 20 часов) [-]-1[+]

[Цитировать] 

Qbot писал(а):

Очень странное русское название. kolob_124
Действительно, ведь должно было быть ДАЙВУ!!
info [Профиль]  [ЛС] 

NovA_JKE

Пол: Пол:Жен

Стаж: 7 лет 6 месяцев

Сообщений: 607

Антарктида
Рейтинг

post 14-Июл-2017 23:57 (спустя 5 дней) [-]0[+]

[Цитировать] 

Добавленa 2-я серия.
info [Профиль]  [ЛС] 

NovA_JKE

Пол: Пол:Жен

Стаж: 7 лет 6 месяцев

Сообщений: 607

Антарктида
Рейтинг

post 21-Июл-2017 22:49 (спустя 6 дней) [-]0[+]

[Цитировать] 

Дoбавлена 3-я серия.
info [Профиль]  [ЛС] 

teshigawara1

Пол: Пол:Муж

Стаж: 4 года 8 месяцев

Сообщений: 47

Россия
Рейтинг

post 22-Июл-2017 23:48 (спустя 1 день) [-]0[+]

[Цитировать] 

Аниме называется "Прыгай!", есть же ссылки на world-art
info [Профиль]  [ЛС] 

NovA_JKE

Пол: Пол:Жен

Стаж: 7 лет 6 месяцев

Сообщений: 607

Антарктида
Рейтинг

post 29-Июл-2017 11:56 (спустя 6 дней) [-]0[+]

[Цитировать] 

Дoбавлена 4-я серия.
info [Профиль]  [ЛС] 

NovA_JKE

Пол: Пол:Жен

Стаж: 7 лет 6 месяцев

Сообщений: 607

Антарктида
Рейтинг

post 08-Авг-2017 10:49 (спустя 9 дней) [-]0[+]

[Цитировать] 

Дoбавлена 5-я серия.
info [Профиль]  [ЛС] 

NovA_JKE

Пол: Пол:Жен

Стаж: 7 лет 6 месяцев

Сообщений: 607

Антарктида
Рейтинг

post 13-Авг-2017 20:45 (спустя 5 дней) [-]0[+]

[Цитировать] 

Дoбавлена 6-я серия.
info [Профиль]  [ЛС] 

NovA_JKE

Пол: Пол:Жен

Стаж: 7 лет 6 месяцев

Сообщений: 607

Антарктида
Рейтинг

post 20-Авг-2017 20:30 (спустя 6 дней) [-]0[+]

[Цитировать] 

Дoбавлена 7-я серия.
info [Профиль]  [ЛС] 

NovA_JKE

Пол: Пол:Жен

Стаж: 7 лет 6 месяцев

Сообщений: 607

Антарктида
Рейтинг

post 27-Авг-2017 00:15 (спустя 6 дней) [-]0[+]

[Цитировать] 

Дoбавлена 8-я серия.
info [Профиль]  [ЛС] 

NovA_JKE

Пол: Пол:Жен

Стаж: 7 лет 6 месяцев

Сообщений: 607

Антарктида
Рейтинг

post 04-Сен-2017 01:44 (спустя 8 дней) [-]0[+]

[Цитировать] 

Дoбавлена 9-я серия.
info [Профиль]  [ЛС] 

NovA_JKE

Пол: Пол:Жен

Стаж: 7 лет 6 месяцев

Сообщений: 607

Антарктида
Рейтинг

post 12-Сен-2017 20:15 (спустя 8 дней) [-]0[+]

[Цитировать] 

Дoбавлена 10-я серия.
info [Профиль]  [ЛС] 
Показать сообщения:    
Ответить на тему

Текущее время: 22-Сен 01:31

Часовой пояс: GMT + 4



Вы не можете начинать темы
Вы не можете отвечать на сообщения
Вы не можете редактировать свои сообщения
Вы не можете удалять свои сообщения
Вы не можете голосовать в опросах
Вы не можете прикреплять файлы к сообщениям
Вы не можете скачивать файлы