Ошибка
Загрузка...

Маньяки ставок / Kakegurui [TV] [1-8 из 12] [2017] [драма, психология, школа] [HDTV] [720p] [Профессиональный] MVO Kansai

Ответить на тему
 
Автор Сообщение

NovA_JKE

Пол: Пол:Жен

Стаж: 7 лет 6 месяцев

Сообщений: 607

Антарктида
Рейтинг

post 04-Июл-2017 17:41 1[+]

[Цитировать] 

pic="https://image.ibb.co/b37bzv/image.gif"


Маньяки ставок | Kakegurui

Год выпуска: 2017
Страна: Япония
Жанр: драма, психология, школа
Тип: TV
Продолжительность: 12 эп. x 25 мин.
Студия:
Режиссер: Хаяси Юйтиро
Автор оригинала: Кавамото Хомура, Наомура Тору
Релиз: студия Kansai
Перевод: М...
Озвучивание: многоголосое закадровое


Описание: Закрытая Академия «Хяккау». Учреждение для привилегированных особ с очень своеобразной учебной программой. Если ты ребенок богатейших из богатых, то к успеху тебя приведет отнюдь не атлетическое мастерство или энциклопедическая начитанность. Ключевое - это прочесть своего оппонента и заключить с ним сделку. И какой же лучший способ оттачивать эти навыки, как не в азартной игре? В частной академии «Хяккау» победители живут как короли, а проигравшие теряют все. Но только с приходом Юмеко Джабами начинается по-настоящему крупная игра.
Дополнительная информация:


Качество: HDTV
Формат: mp4
Видео: h.264; 8 bit; 1280x720; 23,976 fps; ~1761 kbps
Аудио:
  1. RU: AAC-LC 2.0, 48 kHz, ~256 kbps
Субтитры: нет
  1. Ее зовут Джабами Юмеко.
  2. The Boring Woman.
  3. The Slit-Eyed Woman.
  4. The Woman Who Became a House Pet.
  5. The Woman Who Became a Human.
  6. Inviting Woman.
  7. Refusing Women.
  8. Episode 8.

Код:

Общее
Полное имя                               : P:\NovA_JKE\Аниме\!DL Kakegurui (Маньяки ставок) [HDTV, Студия KANSAI]\[KANSAI] Kakegurui - 01 [720p].mp4
Формат                                   : MPEG-4
Профиль формата                          : Base Media
Идентификатор кодека                     : isom (isom)
Размер файла                             : 360 Мбайт
Продолжительность                        : 24 м. 30 с.
Режим общего битрейта                    : Переменный
Общий поток                              : 2056 Кбит/сек
Дата кодирования                         : UTC 2017-07-01 16:27:27
Дата пометки                             : UTC 2017-07-01 16:27:27
Программа кодирования                    : Yamb 2.1.0.0 [http://yamb.unite-video.com]

Видео
Идентификатор                            : 1
Формат                                   : AVC
Формат/Информация                        : Advanced Video Codec
Профиль формата                          : Main@L4.1
Параметр CABAC формата                   : Да
Параметр ReFrames формата                : 4 кадра
Идентификатор кодека                     : avc1
Идентификатор кодека/Информация          : Advanced Video Coding
Продолжительность                        : 24 м. 29 с.
Битрейт                                  : 1761 Кбит/сек
Максимальный битрейт                     : 10,4 Мбит/сек
Ширина                                   : 1280 пикселей
Высота                                   : 720 пикселей
Соотношение сторон                       : 16:9
Режим частоты кадров                     : Постоянный
Частота кадров                           : 23,976 (24000/1001) кадра/сек
Цветовое пространство                    : YUV
Субдискретизация насыщенности            : 4:2:0
Битовая глубина                          : 8 бит
Тип развёртки                            : Прогрессивная
Бит/(Пиксели*Кадры)                      : 0.080
Размер потока                            : 309 Мбайт (86%)
Заголовок                                : https://kansai.studio
Библиотека кодирования                   : x264 core 150 r2833+58 090e24f t_mod_Custom [8-bit@all X86_64]
Настройки программы                      : cabac=1 / ref=3 / deblock=1:0:0 / analyse=0x1:0x111 / me=hex / subme=7 / psy=1 / fade_compensate=0.00 / psy_rd=1.00:0.00 / mixed_ref=1 / me_range=16 / chroma_me=1 / trellis=1 / 8x8dct=0 / cqm=0 / deadzone=21,11 / fast_pskip=1 / chroma_qp_offset=-2 / threads=12 / lookahead_threads=2 / sliced_threads=0 / nr=0 / decimate=1 / interlaced=0 / bluray_compat=0 / constrained_intra=0 / fgo=0 / bframes=3 / b_pyramid=2 / b_adapt=1 / b_bias=0 / direct=1 / weightb=1 / open_gop=0 / weightp=2 / keyint=240 / keyint_min=1 / scenecut=40 / intra_refresh=0 / rc_lookahead=40 / rc=crf / mbtree=1 / crf=20.0000 / qcomp=0.60 / qpmin=0:0:0 / qpmax=69:69:69 / qpstep=4 / ip_ratio=1.40 / aq=1:1.50 / aq-sensitivity=10.00 / aq-factor=1.00:1.00:1.00 / aq2=0 / aq3=0
Язык                                     : Japanese
Дата кодирования                         : UTC 2017-07-01 15:21:12
Дата пометки                             : UTC 2017-07-01 16:28:34
Цветовой диапазон                        : Limited
Основные цвета                           : BT.709
Характеристики трансфера                 : BT.709
Коэффициенты матрицы                     : BT.709

Аудио
Идентификатор                            : 2
Формат                                   : AAC
Формат/Информация                        : Advanced Audio Codec
Профиль формата                          : LC
Идентификатор кодека                     : 40
Продолжительность                        : 24 м. 30 с.
Вид битрейта                             : Переменный
Битрейт                                  : 288 Кбит/сек
Максимальный битрейт                     : 362 Кбит/сек
Каналы                                   : 2 канала
Расположение каналов                     : Front: L R
Частота                                  : 48,0 КГц
Частота кадров                           : 46,875 кадров/сек (1024 spf)
Метод сжатия                             : С потерями
Размер потока                            : 50,9 Мбайт (14%)
Заголовок                                : KANSAI Studio
Язык                                     : Russian
Дата кодирования                         : UTC 2017-07-01 16:28:29
Дата пометки                             : UTC 2017-07-01 16:28:34
info [Профиль]  [ЛС] 

NovA_JKE

Пол: Пол:Жен

Стаж: 7 лет 6 месяцев

Сообщений: 607

Антарктида
Рейтинг

post 10-Июл-2017 20:03 (спустя 6 дней) [-]0[+]

[Цитировать] 

upd. 2ой эпизод
info [Профиль]  [ЛС] 

NovA_JKE

Пол: Пол:Жен

Стаж: 7 лет 6 месяцев

Сообщений: 607

Антарктида
Рейтинг

post 16-Июл-2017 22:03 (спустя 6 дней) [-]0[+]

[Цитировать] 

upd. 3ий эпизод
info [Профиль]  [ЛС] 

NovA_JKE

Пол: Пол:Жен

Стаж: 7 лет 6 месяцев

Сообщений: 607

Антарктида
Рейтинг

post 23-Июл-2017 22:47 (спустя 7 дней) [-]0[+]

[Цитировать] 

upd. 4Ый эпизод
info [Профиль]  [ЛС] 

NovA_JKE

Пол: Пол:Жен

Стаж: 7 лет 6 месяцев

Сообщений: 607

Антарктида
Рейтинг

post 31-Июл-2017 19:19 (спустя 7 дней) [-]0[+]

[Цитировать] 

upd. 5ый эпизод
info [Профиль]  [ЛС] 

NovA_JKE

Пол: Пол:Жен

Стаж: 7 лет 6 месяцев

Сообщений: 607

Антарктида
Рейтинг

post 16-Авг-2017 00:32 (спустя 15 дней) [-]0[+]

[Цитировать] 

upd. 6ой эпизод
info [Профиль]  [ЛС] 

NovA_JKE

Пол: Пол:Жен

Стаж: 7 лет 6 месяцев

Сообщений: 607

Антарктида
Рейтинг

post 22-Авг-2017 19:36 (спустя 6 дней) [-]0[+]

[Цитировать] 

upd. 7ой эпизод
info [Профиль]  [ЛС] 

NovA_JKE

Пол: Пол:Жен

Стаж: 7 лет 6 месяцев

Сообщений: 607

Антарктида
Рейтинг

post 28-Авг-2017 23:54 (спустя 6 дней) [-]0[+]

[Цитировать] 

upd. 8ой эпизод
info [Профиль]  [ЛС] 
Показать сообщения:    
Ответить на тему

Текущее время: 22-Сен 01:22

Часовой пояс: GMT + 4



Вы не можете начинать темы
Вы не можете отвечать на сообщения
Вы не можете редактировать свои сообщения
Вы не можете удалять свои сообщения
Вы не можете голосовать в опросах
Вы не можете прикреплять файлы к сообщениям
Вы не можете скачивать файлы