Ошибка

Рыцари и Магия / Knight's & Magic [TV] [1-4 из 12] [2017] [приключения, фэнтези, меха] [WEBRip] [720p] [Профессиональный]

Ответить на тему
 
Автор Сообщение

NovA_JKE

Пол: Пол:Жен

Стаж: 7 лет 4 месяца

Сообщений: 512

Антарктида
Рейтинг

post 03-Июл-2017 21:50 0[+]

[Цитировать] 

pic="http://savepic.ru/14732501.gif"


Рыцари и Магия | Knight's & Magic

Год выпуска: 2017
Страна: Япония
Жанр: приключения, фэнтези, меха
Тип: TV
Продолжительность: 12 эп. x 25 мин.
Студия:
Режиссер: Ямамото Юсукэ
Автор оригинала: Амадзакэ но Хисаго
Релиз: студия Kansai
Перевод: Ирина Ягодкина
Озвучивание: многоголосое закадровое


Описание: Действие происходит в наше время и повествует нам о главном герое, 28 летнем отаку по имени Курата, который увлекается мехой и работает в издательстве . Однажды после окончания работы в офисе, по пути домой его сбивает машина и он перевоплощается в другом мире под именем Эрнести Эшевалье, также известного как Эру. В этом мире существует огромное человекоподобное оружие, известное как "Силуэт Рыцарей". Мечтая о том, чтобы пилотировать этих роботов, Эру, с друзьями детства, Аккидом Альтером и его сестрой Адельтроудом Альтером, стремятся стать пилотами этих Силуэтских Рыцарей
Дополнительная информация:


Качество: WEBRip
Формат: mkv
Видео: h.264; 8 bit; 1280x720; 23,976 fps; ~2855 kbps
Аудио:
  1. RU: AAC-LC 2.0, 48 kHz, ~256 kbps
Субтитры: нет
  1. Robots & Fantasy.
  2. Hero & Beast!
  3. Scrap & Build.
  4. Light & Shadow.

Код:

Общее
Уникальный идентификатор                 : 191087323856008954166861495514422485934 (0x8FC214745F7C43D6B189B072D3D6A3AE)
Полное имя                               : P:\NovA_JKE\Аниме\!DL Knight's & Magic (Рыцари и Магия) [WEBRip 720p, Студия KANSAI]\[KANSAI] Knight's & Magic - 01 [720p].mkv
Формат                                   : Matroska
Версия формата                           : Version 4 / Version 2
Размер файла                             : 548 Мбайт
Продолжительность                        : 24 м. 30 с.
Общий поток                              : 3127 Кбит/сек
Дата кодирования                         : UTC 2017-07-03 16:39:44
Программа кодирования                    : mkvmerge v13.0.0 ('The Juggler') 64bit
Библиотека кодирования                   : libebml v1.3.4 + libmatroska v1.4.5

Видео
Идентификатор                            : 1
Формат                                   : AVC
Формат/Информация                        : Advanced Video Codec
Профиль формата                          : High@L4
Параметр CABAC формата                   : Да
Параметр ReFrames формата                : 6 кадров
Идентификатор кодека                     : V_MPEG4/ISO/AVC
Продолжительность                        : 24 м. 30 с.
Битрейт                                  : 2855 Кбит/сек
Ширина                                   : 1280 пикселей
Высота                                   : 720 пикселей
Соотношение сторон                       : 16:9
Режим частоты кадров                     : Постоянный
Частота кадров                           : 23,976 (24000/1001) кадра/сек
Цветовое пространство                    : YUV
Субдискретизация насыщенности            : 4:2:0
Битовая глубина                          : 8 бит
Тип развёртки                            : Прогрессивная
Бит/(Пиксели*Кадры)                      : 0.129
Размер потока                            : 500 Мбайт (91%)
Заголовок                                : https://kansai.studio
Библиотека кодирования                   : x264 core 142
Настройки программы                      : cabac=1 / ref=6 / deblock=1:1:1 / analyse=0x3:0x113 / me=umh / subme=8 / psy=1 / psy_rd=0.40:0.00 / mixed_ref=1 / me_range=16 / chroma_me=1 / trellis=1 / 8x8dct=1 / cqm=0 / deadzone=21,11 / fast_pskip=1 / chroma_qp_offset=-2 / threads=10 / lookahead_threads=1 / sliced_threads=0 / nr=0 / decimate=1 / interlaced=0 / bluray_compat=0 / constrained_intra=0 / bframes=3 / b_pyramid=2 / b_adapt=2 / b_bias=0 / direct=3 / weightb=1 / open_gop=0 / weightp=2 / keyint=48 / keyint_min=24 / scenecut=40 / intra_refresh=0 / rc_lookahead=48 / rc=crf / mbtree=1 / crf=15.0 / qcomp=0.60 / qpmin=0 / qpmax=69 / qpstep=4 / vbv_maxrate=4000 / vbv_bufsize=6000 / crf_max=0.0 / nal_hrd=none / filler=0 / ip_ratio=1.40 / aq=1:0.60
Язык                                     : Japanese
Default                                  : Да
Forced                                   : Нет

Аудио
Идентификатор                            : 2
Формат                                   : AAC
Формат/Информация                        : Advanced Audio Codec
Профиль формата                          : LC
Идентификатор кодека                     : A_AAC
Продолжительность                        : 24 м. 30 с.
Битрейт                                  : 265 Кбит/сек
Каналы                                   : 2 канала
Расположение каналов                     : Front: L R
Частота                                  : 48,0 КГц
Частота кадров                           : 46,875 кадров/сек (1024 spf)
Метод сжатия                             : С потерями
Задержка видео                           : -83 мс.
Размер потока                            : 47,2 Мбайт (9%)
Заголовок                                : KANSAI Studio
Язык                                     : Russian
Default                                  : Да
Forced                                   : Нет
info [Профиль]  [ЛС] 

Lemmly

Пол: Пол:Муж

Стаж: 4 года 8 месяцев

Сообщений: 7

Россия
Рейтинг

post 05-Июл-2017 21:29 (спустя 1 день 23 часа) [-]0[+]

[Цитировать] 

У них там конвейер?)
info [Профиль]  [ЛС] 

NovA_JKE

Пол: Пол:Жен

Стаж: 7 лет 4 месяца

Сообщений: 512

Антарктида
Рейтинг

post 10-Июл-2017 20:16 (спустя 4 дня) [-]0[+]

[Цитировать] 

Добавлена 2-я сeрия.
info [Профиль]  [ЛС] 

NovA_JKE

Пол: Пол:Жен

Стаж: 7 лет 4 месяца

Сообщений: 512

Антарктида
Рейтинг

post 19-Июл-2017 22:53 (спустя 9 дней) [-]0[+]

[Цитировать] 

Добавлена 3-я сeрия.
info [Профиль]  [ЛС] 

NovA_JKE

Пол: Пол:Жен

Стаж: 7 лет 4 месяца

Сообщений: 512

Антарктида
Рейтинг

post 25-Июл-2017 19:04 (спустя 5 дней) [-]0[+]

[Цитировать] 

Добавлена 4-я сeрия.
info [Профиль]  [ЛС] 
Показать сообщения:    
Ответить на тему

Текущее время: 26-Июл 20:50

Часовой пояс: GMT + 4



Вы не можете начинать темы
Вы не можете отвечать на сообщения
Вы не можете редактировать свои сообщения
Вы не можете удалять свои сообщения
Вы не можете голосовать в опросах
Вы не можете прикреплять файлы к сообщениям
Вы не можете скачивать файлы