Ошибка

Чистюля Аояма-кун / Cleanliness Boy! Aoyama-kun / Keppeki Danshi! Aoyama-kun [TV] [1-12 из 12] [2017] [комедия, спорт] [WEBRip] [720p] [Профессиональный] MVO Kansai

Ответить на тему
 
Автор Сообщение

NovA_JKE

Пол: Пол:Жен

Стаж: 7 лет 9 месяцев

Сообщений: 656

Антарктида
Рейтинг

post 03-Июл-2017 20:37 0[+]

[Цитировать] 

pic="https://image.ibb.co/gkkksF/image.gif"


Чистюля Аояма-кун | Cleanliness Boy! Aoyama-kun | Keppeki Danshi! Aoyama-kun

Год выпуска: 2017
Страна: Япония
Жанр: комедия, спорт
Тип: TV
Продолжительность: 12 эп. x 25 мин.
Студия:
Режиссер: Итикава Кадзуя
Автор оригинала: Сакамото Таку
Релиз: студия Kansai
Перевод: Руслан Тарасов
Озвучивание: многоголосое закадровое


Описание: Аояма играет за юношескую сборную Японии по футболу. Его навыки и перспективы просто поражают. Кроме того - он еще и красавчик. Однако без странностей не обошлось. Парень настолько чистюля, что это складывается на стиле игры: он ни при каких обстоятельствах не отбивает мяч головой и не стелется в подкат, а если ему и приходится брать мяч в руки, то для этого он надевает свои белоснежные перчатки. Чего же добьется этот парень?
Дополнительная информация:


Качество: WEBRip
Формат: mkv
Видео: h.264; 8 bit; 1280x720; 23,976 fps; ~2229 kbps
Аудио:
  1. RU: AAC-LC 2.0, 48 kHz, ~256 kbps
Субтитры: нет
  1. Аояма-кун, чистюля.
  2. Аояма-кун, а ты помнишь?
  3. Причина отсутствия Аоямы.
  4. Нарита-кун хранит тайну.
  5. Тсукамото-кун всегда был весельчаком.
  6. Гордость Озаки-куна.
  7. Одагири-сан не может попасть.
  8. Умэя-кун очень терпеливый.
  9. Мива-чан хочет устроить тренировочный лагерь.
  10. У Аояма-куна много тайн.
  11. Сакаи-кун изменил причёску.
  12. Аояма-кун сделал выбор.

Код:

Общее
Уникальный идентификатор                 : 186418366821926672825209015509713281569 (0x8C3EDF199D9050F2B704669A6445E221)
Полное имя                               : P:\NovA_JKE\Аниме\!DL Keppeki Danshi Aoyama-kun (Чистюля Аояма-кун) [WEBRip 720p, Студия KANSAI]\[KANSAI] Keppeki Danshi! Aoyama-kun - 01 [720p].mkv
Формат                                   : Matroska
Версия формата                           : Version 4 / Version 2
Размер файла                             : 425 Мбайт
Продолжительность                        : 23 м. 40 с.
Общий поток                              : 2510 Кбит/сек
Дата кодирования                         : UTC 2017-07-03 14:57:24
Программа кодирования                    : mkvmerge v13.0.0 ('The Juggler') 64bit
Библиотека кодирования                   : libebml v1.3.4 + libmatroska v1.4.5

Видео
Идентификатор                            : 1
Формат                                   : AVC
Формат/Информация                        : Advanced Video Codec
Профиль формата                          : High@L4
Параметр CABAC формата                   : Да
Параметр ReFrames формата                : 6 кадров
Идентификатор кодека                     : V_MPEG4/ISO/AVC
Продолжительность                        : 23 м. 40 с.
Битрейт                                  : 2229 Кбит/сек
Ширина                                   : 1280 пикселей
Высота                                   : 720 пикселей
Соотношение сторон                       : 16:9
Режим частоты кадров                     : Постоянный
Частота кадров                           : 23,976 (24000/1001) кадра/сек
Цветовое пространство                    : YUV
Субдискретизация насыщенности            : 4:2:0
Битовая глубина                          : 8 бит
Тип развёртки                            : Прогрессивная
Бит/(Пиксели*Кадры)                      : 0.101
Размер потока                            : 377 Мбайт (89%)
Заголовок                                : https://kansai.studio
Библиотека кодирования                   : x264 core 142
Настройки программы                      : cabac=1 / ref=6 / deblock=1:1:1 / analyse=0x3:0x113 / me=umh / subme=8 / psy=1 / psy_rd=0.40:0.00 / mixed_ref=1 / me_range=16 / chroma_me=1 / trellis=1 / 8x8dct=1 / cqm=0 / deadzone=21,11 / fast_pskip=1 / chroma_qp_offset=-2 / threads=10 / lookahead_threads=1 / sliced_threads=0 / nr=0 / decimate=1 / interlaced=0 / bluray_compat=0 / constrained_intra=0 / bframes=3 / b_pyramid=2 / b_adapt=2 / b_bias=0 / direct=3 / weightb=1 / open_gop=0 / weightp=2 / keyint=48 / keyint_min=24 / scenecut=40 / intra_refresh=0 / rc_lookahead=48 / rc=crf / mbtree=1 / crf=15.0 / qcomp=0.60 / qpmin=0 / qpmax=69 / qpstep=4 / vbv_maxrate=4000 / vbv_bufsize=6000 / crf_max=0.0 / nal_hrd=none / filler=0 / ip_ratio=1.40 / aq=1:0.60
Язык                                     : Japanese
Default                                  : Да
Forced                                   : Нет

Аудио
Идентификатор                            : 2
Формат                                   : AAC
Формат/Информация                        : Advanced Audio Codec
Профиль формата                          : LC
Идентификатор кодека                     : A_AAC
Продолжительность                        : 23 м. 40 с.
Битрейт                                  : 278 Кбит/сек
Каналы                                   : 2 канала
Расположение каналов                     : Front: L R
Частота                                  : 48,0 КГц
Частота кадров                           : 46,875 кадров/сек (1024 spf)
Метод сжатия                             : С потерями
Задержка видео                           : -83 мс.
Размер потока                            : 47,1 Мбайт (11%)
Заголовок                                : KANSAI Studio
Язык                                     : Russian
Default                                  : Да
Forced                                   : Нет

info [Профиль]  [ЛС] 

NovA_JKE

Пол: Пол:Жен

Стаж: 7 лет 9 месяцев

Сообщений: 656

Антарктида
Рейтинг

post 10-Июл-2017 21:40 (спустя 7 дней) [-]0[+]

[Цитировать] 

upd. 2я серия.
info [Профиль]  [ЛС] 

NovA_JKE

Пол: Пол:Жен

Стаж: 7 лет 9 месяцев

Сообщений: 656

Антарктида
Рейтинг

post 17-Июл-2017 20:17 (спустя 6 дней) [-]0[+]

[Цитировать] 

upd. 3я серия.
info [Профиль]  [ЛС] 

NovA_JKE

Пол: Пол:Жен

Стаж: 7 лет 9 месяцев

Сообщений: 656

Антарктида
Рейтинг

post 24-Июл-2017 22:43 (спустя 7 дней) [-]0[+]

[Цитировать] 

upd. 4я серия.
info [Профиль]  [ЛС] 

NovA_JKE

Пол: Пол:Жен

Стаж: 7 лет 9 месяцев

Сообщений: 656

Антарктида
Рейтинг

post 08-Авг-2017 18:01 (спустя 14 дней) [-]0[+]

[Цитировать] 

upd. 5я и 6я серии.
info [Профиль]  [ЛС] 

NovA_JKE

Пол: Пол:Жен

Стаж: 7 лет 9 месяцев

Сообщений: 656

Антарктида
Рейтинг

post 16-Авг-2017 03:44 (спустя 7 дней) [-]0[+]

[Цитировать] 

upd. 7я серия.
info [Профиль]  [ЛС] 

NovA_JKE

Пол: Пол:Жен

Стаж: 7 лет 9 месяцев

Сообщений: 656

Антарктида
Рейтинг

post 23-Авг-2017 21:46 (спустя 7 дней) [-]0[+]

[Цитировать] 

upd. 8я серия.
info [Профиль]  [ЛС] 

NovA_JKE

Пол: Пол:Жен

Стаж: 7 лет 9 месяцев

Сообщений: 656

Антарктида
Рейтинг

post 30-Авг-2017 01:43 (спустя 6 дней) [-]0[+]

[Цитировать] 

upd. 9я серия.
info [Профиль]  [ЛС] 

NovA_JKE

Пол: Пол:Жен

Стаж: 7 лет 9 месяцев

Сообщений: 656

Антарктида
Рейтинг

post 09-Сен-2017 16:44 (спустя 10 дней) [-]0[+]

[Цитировать] 

upd. 10я серия.
info [Профиль]  [ЛС] 

Dais

Пол: Пол:Муж

Стаж: 6 лет 5 месяцев

Сообщений: 107

Россия
Рейтинг

post 10-Сен-2017 21:10 (спустя 1 день 4 часа) [-]0[+]

[Цитировать] 

Как мульт?
info [Профиль]  [ЛС] 

NovA_JKE

Пол: Пол:Жен

Стаж: 7 лет 9 месяцев

Сообщений: 656

Антарктида
Рейтинг

post 14-Сен-2017 15:06 (спустя 3 дня) [-]0[+]

[Цитировать] 

upd. 11я серия.
info [Профиль]  [ЛС] 

Full_mad

Стаж: 4 года 4 месяца

Сообщений: 138

Остров Рождества
Рейтинг

post 15-Сен-2017 02:18 (спустя 11 часов) [-]0[+]

[Цитировать] 

Dais писал(а):

Как мульт?
Присоединяюсь к вопросу.
А трансы есть ?
Есть немножко яоя ?
Смищное есть ?

_________________
Что бы мне скачать ? kolob_135
info [Профиль]  [ЛС] 

NovA_JKE

Пол: Пол:Жен

Стаж: 7 лет 9 месяцев

Сообщений: 656

Антарктида
Рейтинг

post 24-Сен-2017 13:08 (спустя 9 дней) [-]0[+]

[Цитировать] 

upd. 12я серия. конец.
info [Профиль]  [ЛС] 
Показать сообщения:    
Ответить на тему

Текущее время: 14-Дек 10:09

Часовой пояс: GMT + 4



Вы не можете начинать темы
Вы не можете отвечать на сообщения
Вы не можете редактировать свои сообщения
Вы не можете удалять свои сообщения
Вы не можете голосовать в опросах
Вы не можете прикреплять файлы к сообщениям
Вы не можете скачивать файлы