Ошибка
Загрузка...

Обитель зла: Вендетта / Resident Evil: Vendetta (Дэвид Йейтс) [2017 г., мультфильм, ужасы, фантастика, боевик, детектив, приключения, BDRip 720p] iTunes

Ответить на тему
 
Автор Сообщение

L

Пол: Пол:Муж

Стаж: 7 лет 6 месяцев

Сообщений: 11815

Украина
Рейтинг

post 02-Июл-2017 11:34 2[+]

[Цитировать] 


Обитель зла: Вендетта / Resident Evil: Vendetta
«Party Like a Mother»
Год выхода:2017
Страна:Япония
Жанр:мультфильм, ужасы, фантастика, боевик, детектив, приключения
Продолжительность:01:37:13
Перевод:Профессиональный (полное дублирование) | iTunes
Субтитры:Русские, Английские

Режиссер:Таканори Цудзимото
В ролях:Кевин Дорман, Мэттью Мерсер, Эрин Кехилл, Кари Уолгрен, Ариф С. Кинчен, Арни Пантойя, Джон ДеМита, Кристина Валенсуела, Фред Татаскьор, Александр Полински

О фильме:Сотрудник организации по борьбе с биотерроризмом B.S.A.A. Крис Редфилд проникает в таинственный особняк, который, согласно информации, является базой контрабандистов оружием. В ходе расследования Крис сталкивается с Гленом Ариасом, преступником объявленным в международный розыск, и становится свидетелем странной картины, в результате которой упускает Ариаса.

| |

Качество:BDRip 720p
Формат:mkv
Видео: MPEG-4 AVC, 4894 Кбит/с, 1280x720
Аудио: Русский (AC3, 6 ch, 384 Кбит/с), английский (DTS, 6 ch, 1510 Кбит/с)
Уникальный идентификатор : 187472722860600267572866810049834759530 (0x8D09EEDDC2CF52F4871B21444073B56A)
Полное имя : E:\V\Resident.Evil.Vendetta.2017.BDRip.720p.ExKinoRay.mkv
Формат : Matroska
Версия формата : Version 4 / Version 2
Размер файла : 4,61 Гбайт
Продолжительность : 1 ч. 37 м.
Общий поток : 6787 Кбит/сек
Дата кодирования : UTC 2017-07-02 03:54:43
Программа кодирования : mkvmerge v13.0.0 ('The Juggler') 64bit
Библиотека кодирования : libebml v1.3.4 + libmatroska v1.4.5

Видео
Идентификатор : 1
Формат : AVC
Формат/Информация : Advanced Video Codec
Профиль формата : High@L4.1
Параметр CABAC формата : Да
Параметр ReFrames формата : 9 кадров
Идентификатор кодека : V_MPEG4/ISO/AVC
Продолжительность : 1 ч. 37 м.
Битрейт : 4894 Кбит/сек
Ширина : 1280 пикселей
Высота : 720 пикселей
Соотношение сторон : 16:9
Режим частоты кадров : Постоянный
Частота кадров : 23,976 (24000/1001) кадра/сек
Цветовое пространство : YUV
Субдискретизация насыщенности : 4:2:0
Битовая глубина : 8 бит
Тип развёртки : Прогрессивная
Бит/(Пиксели*Кадры) : 0.221
Размер потока : 3,32 Гбайт (72%)
Библиотека кодирования : x264 core 148 r2597 e86f3a1
Настройки программы : cabac=1 / ref=9 / deblock=1:0:0 / analyse=0x3:0x113 / me=umh / subme=10 / psy=1 / psy_rd=1.05:0.10 / mixed_ref=1 / me_range=32 / chroma_me=1 / trellis=2 / 8x8dct=1 / cqm=0 / deadzone=21,11 / fast_pskip=0 / chroma_qp_offset=-2 / threads=12 / lookahead_threads=1 / sliced_threads=0 / nr=0 / decimate=1 / interlaced=0 / bluray_compat=0 / constrained_intra=0 / bframes=6 / b_pyramid=2 / b_adapt=2 / b_bias=0 / direct=3 / weightb=1 / open_gop=0 / weightp=2 / keyint=250 / keyint_min=23 / scenecut=40 / intra_refresh=0 / rc=2pass / mbtree=0 / bitrate=4894 / ratetol=1.0 / qcomp=0.70 / qpmin=0 / qpmax=69 / qpstep=4 / cplxblur=20.0 / qblur=0.5 / ip_ratio=1.40 / pb_ratio=1.30 / aq=2:1.00
Язык : English
Default : Да
Forced : Нет

Аудио #1
Идентификатор : 2
Формат : AC-3
Формат/Информация : Audio Coding 3
Параметр Endianness формата : Big
Идентификатор кодека : A_AC3
Продолжительность : 1 ч. 37 м.
Вид битрейта : Постоянный
Битрейт : 384 Кбит/сек
Каналы : 6 каналов
Расположение каналов : Front: L C R, Side: L R, LFE
Частота : 48,0 КГц
Частота кадров : 31,250 кадров/сек (1536 spf)
Битовая глубина : 16 бит
Метод сжатия : С потерями
Размер потока : 267 Мбайт (6%)
Заголовок : iTunes
Язык : Russian
ServiceKind/String : Complete Main
Default : Да
Forced : Нет

Аудио #2
Идентификатор : 3
Формат : DTS
Формат/Информация : Digital Theater Systems
Режим : 16
Параметр Endianness формата : Big
Идентификатор кодека : A_DTS
Продолжительность : 1 ч. 37 м.
Вид битрейта : Постоянный
Битрейт : 1509 Кбит/сек
Каналы : 6 каналов
Расположение каналов : Front: L C R, Side: L R, LFE
Частота : 48,0 КГц
Частота кадров : 93,750 кадра/сек (512 spf)
Битовая глубина : 24 бит
Метод сжатия : С потерями
Размер потока : 1,03 Гбайт (22%)
Заголовок : Original
Язык : English
Default : Нет
Forced : Нет

Текст #1
Идентификатор : 4
Формат : UTF-8
Идентификатор кодека : S_TEXT/UTF8
Идентификатор кодека/Информация : UTF-8 Plain Text
Продолжительность : 1 ч. 35 м.
Битрейт : 48 бит/сек
ElementCount : 600
Размер потока : 33,9 Кбайт (0%)
Заголовок : Full
Язык : Russian
Default : Нет
Forced : Нет

Текст #2
Идентификатор : 5
Формат : UTF-8
Идентификатор кодека : S_TEXT/UTF8
Идентификатор кодека/Информация : UTF-8 Plain Text
Продолжительность : 1 ч. 35 м.
Битрейт : 28 бит/сек
ElementCount : 587
Размер потока : 19,9 Кбайт (0%)
Заголовок : Full
Язык : English
Default : Нет
Forced : Нет

Меню
00:00:00.000 : en:00:00:00.000
00:01:57.492 : en:00:01:57.492
00:11:47.624 : en:00:11:47.624
00:17:51.946 : en:00:17:51.946
00:25:12.261 : en:00:25:12.261
00:31:00.567 : en:00:31:00.567
00:36:43.118 : en:00:36:43.118
00:42:49.817 : en:00:42:49.817
00:48:20.981 : en:00:48:20.981
00:53:50.853 : en:00:53:50.853
00:58:51.027 : en:00:58:51.027
01:06:58.598 : en:01:06:58.598
01:11:38.836 : en:01:11:38.836
01:15:13.050 : en:01:15:13.050
01:21:41.688 : en:01:21:41.688
01:29:38.748 : en:01:29:38.748
info [Профиль]  [ЛС] 

Nightery

Пол: Пол:Муж

Стаж: 4 года 5 месяцев

Сообщений: 138

Япония
Рейтинг

post 02-Июл-2017 12:02 (спустя 27 минут) [-]1[+]

[Цитировать] 

Фильм-поделка аниматоров. ))) Посмотрел, они талантливо исполнили анимации персонажей через motion capture, но вот все остальное: финальный рендер, сюжет, наполнение окружения - просто ужасно, на троечку имхо.
info [Профиль]  [ЛС] 

vadimklose

Пол: Пол:Муж

Стаж: 8 лет 4 месяца

Сообщений: 1557

Великобритания
Рейтинг

post 02-Июл-2017 12:32 (спустя 29 минут) [-]1[+]

[Цитировать] 

Сравнительно с двумя прошлыми частями, эта просто дешевая поделка. Анимации лиц нет, графика выглядит очень плохо (за исключением персонажей), сюжета нет. Посмотрел и крайне разочаровался, ведь прошлые две части были отличными полнометражками, в отличии от этой. 3/10, мусор.
info [Профиль]  [ЛС] 
mamona1

post 02-Июл-2017 13:27 (спустя 55 минут) -43      заценить

Ergo Proxy

Пол: Пол:Муж

Стаж: 5 лет

Сообщений: 60

Россия
Рейтинг

post 02-Июл-2017 14:55 (спустя 1 час 27 минут) [-]8[+]

[Цитировать] 

mamona1 писал(а):

Nightery писал(а):

Фильм-поделка аниматоров. ))) Посмотрел, они талантливо исполнили анимации персонажей через motion capture, но вот все остальное: финальный рендер, сюжет, наполнение окружения - просто ужасно, на троечку имхо.
так а почему мы до сих пор не можем лицезреть работы от вас?? где не на "троечку", эм? покажите нам, научите нас, СВОИМИ РАБОТАМИ - СВОИМИ, ИМЕННО СВОИМИ, не??? сидите тихо дети, на бесплатных торентах!
"Дяденька" критик, вы ошиблись сайтом. Кинопоиск и фильмы "Горько" в другой стороне. Милостиво просим пройти на диванчик.
info [Профиль]  [ЛС] 

bormman

Пол: Пол:Муж

Стаж: 8 лет 6 месяцев

Сообщений: 51

Украина
Рейтинг

post 02-Июл-2017 23:25 (спустя 8 часов) [-]-20[+]

[Цитировать] 

Nightery писал(а):

Фильм-поделка аниматоров. ))) Посмотрел, они талантливо исполнили анимации персонажей через motion capture, но вот все остальное: финальный рендер, сюжет, наполнение окружения - просто ужасно, на троечку имхо.

vadimklose писал(а):

Сравнительно с двумя прошлыми частями, эта просто дешевая поделка. Анимации лиц нет, графика выглядит очень плохо (за исключением персонажей), сюжета нет. Посмотрел и крайне разочаровался, ведь прошлые две части были отличными полнометражками, в отличии от этой. 3/10, мусор.
Не ну ты посмотри на это упоротое школоло, вконец мозга лишились.... идите смотреть "Маша и медвед" или еще какую хрень от "Мельницы" - вооот где эпическая графа и шикарная сюжетная линия kolob_123
info [Профиль]  [ЛС] 

NikolaVanino

Пол: Пол:Муж

Стаж: 7 лет 1 месяц

Сообщений: 42

Россия
Рейтинг

post 03-Июл-2017 00:16 (спустя 51 минута) [-]4[+]

[Цитировать] 

Фильм халтура...

_________________
Мы рабы своих вещей (БК)
info [Профиль]  [ЛС] 

anshi3032

Стаж: 6 месяцев 20 дней

Сообщений: 1

Предупреждений: 1

Казахстан
Рейтинг

post 19-Июл-2017 05:46 (спустя 16 дней) [-]1[+]

[Цитировать] 

Лучше старые пересмотреть ни сюжета ни красивой картинки, конечно тут добавили больше мяса и отрывов конечности, но фильм это не спасает, что меня раздражает во всех частях фильмов и игр, так это мутации боссов, вот он простой человек, а вот он мутировал и откуда то появилось +300 кг мяса мыщцы, щупальца и тд.
info [Профиль]  [ЛС] 

Soulcheg

Пол: Пол:Муж

Стаж: 7 лет 4 месяца

Сообщений: 103

Россия
Рейтинг

post 22-Июл-2017 13:11 (спустя 3 дня) [-]0[+]

[Цитировать] 

anshi3032 писал(а):

мутации боссов, вот он простой человек, а вот он мутировал и откуда то появилось +300 кг мяса мыщцы, щупальца и тд.
Так работает Т-вирус и его вариации, объяснялось в играх не раз Улыбаюсь

Мне понравилось, схватки сделаны вполне себе, лица персонажей сделаны хорошо. Не понимаю, правда, где в таймлайне серии расположена эта лента. Лос Иллюминадос уничтожены, Крис в форме БСАА, а значит после 4 и 5-ой частей, но шестая не вписывается как-то. В шестой Редфилд топил себя в алкоголе, а здесь Леона за это упрекает, а что с Леоном стало - совсем непонятно.
info [Профиль]  [ЛС] 

Enix

Стаж: 7 лет 7 месяцев

Сообщений: 880

Рейтинг

post 22-Июл-2017 14:55 (спустя 1 час 44 минуты) [-]0[+]

[Цитировать] 

anshi3032
Soulcheg

Ну там же в конце он ввел себе вирус и сказал этому монстру тому огромному, что начинаем последнюю фазу. Типо слились вместе и получился вот этот 300+кг монстр.
А по таймлайну это часть после Biohazard:REsident Evil.
info [Профиль]  [ЛС] 
Показать сообщения:    
Ответить на тему

Текущее время: 21-Окт 21:43

Часовой пояс: GMT + 4



Вы не можете начинать темы
Вы не можете отвечать на сообщения
Вы не можете редактировать свои сообщения
Вы не можете удалять свои сообщения
Вы не можете голосовать в опросах
Вы не можете прикреплять файлы к сообщениям
Вы не можете скачивать файлы