Ошибка

Лего (Фильм: Бэтмен) / The LEGO Batman Movie (Крис МакКей) [2017, Мультфильм, фэнтези, боевик, комедия, приключения, семейный, полнометражный, BDRip 720p] iTunes

Ответить на тему
 
Автор Сообщение

L

Пол: Пол:Муж

Стаж: 7 лет 9 месяцев

Сообщений: 11827

Украина
Рейтинг

post 31-Май-2017 22:52 1[+]

[Цитировать] 

Лего Фильм: Бэтмен/ The LEGO Batman Movie
Год выпуска: 2017
Жанр: Мультфильм, фэнтези, боевик, комедия, приключения, семейный, полнометражный
Выпущено: Дания, США, DC Entertainment, LEGO System A/S
Продолжительность: 01:38:27
Перевод: Дублированный | iTunes
Субтитры: Русские, английские

Режиссер: Крис МакКей
В ролях: Уилл Арнетт, Майкл Сера, Розарио Доусон, Рэйф Файнс, Зак Галифианакис, Дженни Слейт, Джейсон Манцукас, Конан О’Брайен, Даг Бенсон

О фильме: Готэму вновь грозит опасность. И на его стражу становится единственный герой, которого заслуживает этот город — Бэтмен, альтер-эго миллиардера Брюса Уэйна, живущего в своем огромном родовом поместье вместе с дворецким Альфредом. Но в этот раз супергерой вынужден взять в напарники парня по имени Дик Грейсон, которого он, сам того не помня, усыновил на одном из светских приемов. Новоиспеченный Робин составит Бэтмену компанию в борьбе с его заклятым врагом Джокером, сбежавшим из психиатрической больницы «Аркхем», а также Харли Куинн, готовой на самые сумасшедшие злодеяния, чтобы оставить в дураках всю «Лигу Справедливости», включая Бэтгерл.

|

Качество: BDRip 720p
Формат: MKV
Видео: MPEG-4 AVC, 3843 Кбит/с, 1280x536
Аудио: Русский (AC3, 6 ch, 384 Кбит/с), английский (AC3, 6 ch, 640 Кбит/с)
Unique ID : 246439995426118384786597933071951732295 (0xB9669DDDFDFDF1A88BC06D3AE82C1E47)
Complete name : E:\V\The.LEGO.Batman.Movie.2017.BDRip.720p.mkv
Format : Matroska
Format version : Version 4 / Version 2
File size : 3.55 GiB
Duration : 1 h 44 min
Overall bit rate : 4 869 kb/s
Encoded date : UTC 2017-05-31 04:08:49
Writing application : mkvmerge v12.0.0 ('Trust / Lust') 64bit
Writing library : libebml v1.3.4 + libmatroska v1.4.5

Video
ID : 1
Format : AVC
Format/Info : Advanced Video Codec
Format profile : High@L4.1
Format settings, CABAC : Yes
Format settings, ReFrames : 5 frames
Codec ID : V_MPEG4/ISO/AVC
Duration : 1 h 44 min
Bit rate : 3 843 kb/s
Width : 1 280 pixels
Height : 536 pixels
Display aspect ratio : 2.40:1
Frame rate mode : Constant
Frame rate : 23.976 (24000/1001) FPS
Color space : YUV
Chroma subsampling : 4:2:0
Bit depth : 8 bits
Scan type : Progressive
Bits/(Pixel*Frame) : 0.234
Stream size : 2.80 GiB (79%)
Writing library : x264 core 150 r2833 df79067
Encoding settings : cabac=1 / ref=5 / deblock=1:0:0 / analyse=0x3:0x113 / me=umh / subme=8 / psy=1 / psy_rd=1.00:0.00 / mixed_ref=1 / me_range=16 / chroma_me=1 / trellis=1 / 8x8dct=1 / cqm=0 / deadzone=21,11 / fast_pskip=1 / chroma_qp_offset=-2 / threads=24 / lookahead_threads=4 / sliced_threads=0 / nr=0 / decimate=1 / interlaced=0 / bluray_compat=0 / constrained_intra=0 / bframes=3 / b_pyramid=2 / b_adapt=1 / b_bias=0 / direct=3 / weightb=1 / open_gop=0 / weightp=2 / keyint=240 / keyint_min=24 / scenecut=40 / intra_refresh=0 / rc_lookahead=50 / rc=2pass / mbtree=1 / bitrate=3843 / ratetol=1.0 / qcomp=0.60 / qpmin=0 / qpmax=69 / qpstep=4 / cplxblur=20.0 / qblur=0.5 / ip_ratio=1.40 / aq=1:1.00
Language : English
Default : Yes
Forced : No

Audio #1
ID : 2
Format : AC-3
Format/Info : Audio Coding 3
Format settings, Endianness : Big
Codec ID : A_AC3
Duration : 1 h 44 min
Bit rate mode : Constant
Bit rate : 384 kb/s
Channel(s) : 6 channels
Channel positions : Front: L C R, Side: L R, LFE
Sampling rate : 48.0 kHz
Frame rate : 31.250 FPS (1536 spf)
Bit depth : 16 bits
Compression mode : Lossy
Stream size : 287 MiB (8%)
Language : Russian
Service kind : Complete Main
Default : Yes
Forced : No

Audio #2
ID : 3
Format : AC-3
Format/Info : Audio Coding 3
Format settings, Endianness : Big
Codec ID : A_AC3
Duration : 1 h 44 min
Bit rate mode : Constant
Bit rate : 640 kb/s
Channel(s) : 6 channels
Channel positions : Front: L C R, Side: L R, LFE
Sampling rate : 48.0 kHz
Frame rate : 31.250 FPS (1536 spf)
Bit depth : 16 bits
Compression mode : Lossy
Stream size : 478 MiB (13%)
Language : English
Service kind : Complete Main
Default : No
Forced : No

Text #1
ID : 4
Format : UTF-8
Codec ID : S_TEXT/UTF8
Codec ID/Info : UTF-8 Plain Text
Duration : 1 h 36 min
Bit rate : 4 b/s
Count of elements : 74
Stream size : 2.91 KiB (0%)
Language : Russian
Default : Yes
Forced : No

Text #2
ID : 5
Format : UTF-8
Codec ID : S_TEXT/UTF8
Codec ID/Info : UTF-8 Plain Text
Duration : 1 h 44 min
Bit rate : 130 b/s
Count of elements : 2178
Stream size : 99.7 KiB (0%)
Language : Russian
Default : No
Forced : No

Text #3
ID : 6
Format : UTF-8
Codec ID : S_TEXT/UTF8
Codec ID/Info : UTF-8 Plain Text
Duration : 1 h 44 min
Bit rate : 87 b/s
Count of elements : 2167
Stream size : 66.6 KiB (0%)
Language : English
Default : No
Forced : No

Text #4
ID : 7
Format : UTF-8
Codec ID : S_TEXT/UTF8
Codec ID/Info : UTF-8 Plain Text
Duration : 1 h 44 min
Bit rate : 95 b/s
Count of elements : 2341
Stream size : 73.0 KiB (0%)
Title : SDH
Language : English
Default : No
Forced : No

Menu
00:00:00.000 : en:00:00:00.000
00:12:56.526 : en:00:12:56.526
00:22:57.793 : en:00:22:57.793
00:32:32.701 : en:00:32:32.701
00:40:58.539 : en:00:40:58.539
00:50:12.593 : en:00:50:12.593
01:00:26.456 : en:01:00:26.456
01:10:59.505 : en:01:10:59.505
01:19:30.975 : en:01:19:30.975
01:27:18.400 : en:01:27:18.400
01:36:27.156 : en:01:36:27.156
info [Профиль]  [ЛС] 

Shakaaho

Пол: Пол:Муж

Стаж: 3 года 7 месяцев

Сообщений: 1187

Россия
Рейтинг

post 01-Июн-2017 00:54 (спустя 2 часа 2 минуты) [-]-10[+]

[Цитировать] 

как люди такое смотрят?)

_________________
info [Профиль]  [ЛС] 

LolOloL

Пол: Пол:Муж

Стаж: 8 лет 4 месяца

Сообщений: 96

Россия
Рейтинг

post 01-Июн-2017 01:11 (спустя 16 минут) [-]-4[+]

[Цитировать] 

Ходил в кино, мне как фанату героя Бэтмена категорически не понравилось...
Жалко денег.
info [Профиль]  [ЛС] 

ДОБРЫЙ

Пол: Пол:Муж

Стаж: 6 лет 5 месяцев

Сообщений: 62

Россия
Рейтинг

post 01-Июн-2017 01:12 (спустя 23 секунды) [-]1[+]

[Цитировать] 

Shakaaho писал(а):

как люди такое смотрят?)
А вы посмотрите и узнаете... Авось тоже втянетесь. kolob_111

_________________
info [Профиль]  [ЛС] 

Postall

Стаж: 8 лет 3 месяца

Сообщений: 66

Куба
Рейтинг

post 01-Июн-2017 11:15 (спустя 10 часов) [-]-2[+]

[Цитировать] 

После Лего Фильм вообще несмотрибельно. Очень посредственный мультик.

_________________
info [Профиль]  [ЛС] 

MIB86

Стаж: 8 лет 3 месяца

Сообщений: 6

Рейтинг

post 01-Июн-2017 22:01 (спустя 10 часов) [-]1[+]

[Цитировать] 

начали очень хорошо, а потом сдулись
info [Профиль]  [ЛС] 
Показать сообщения:    
Ответить на тему

Текущее время: 23-Янв 12:02

Часовой пояс: GMT + 4



Вы не можете начинать темы
Вы не можете отвечать на сообщения
Вы не можете редактировать свои сообщения
Вы не можете удалять свои сообщения
Вы не можете голосовать в опросах
Вы не можете прикреплять файлы к сообщениям
Вы не можете скачивать файлы