Ошибка

До окончания фрилича осталось:


Зверопой / Sing (Кристоф Лурделе / Christophe Lourdelet, Гарт Дженнингс / Garth Jennings) [2016, США, мультфильм, комедия, семейный, музыка, BDRip] Dub + Original Eng + Sub Rus, Eng

Ответить на тему
 
Автор Сообщение

L

Пол: Пол:Муж

Стаж: 7 лет 9 месяцев

Сообщений: 11827

Украина
Рейтинг

post 30-Май-2017 09:29 2[+]

[Цитировать] 

Зверопой / Sing
Год выпуска: 2016
Страна: США / Universal Pictures
Жанр: мультфильм, комедия, семейный, музыка
Продолжительность: 01:47:53
Перевод: Профессиональный (дублированный) R5
Субтитры: русские, английские
Оригинальная аудиодорожка: английский

Режиссер: Кристоф Лурделе / Christophe Lourdelet, Гарт Дженнингс / Garth Jennings
В ролях: Мэттью МакКонахи, Риз Уизерспун, Сет МакФарлейн, Скарлетт Йоханссон, Джон Си Райли, Тэрон Эджертон, Тори Келли, Дженнифер Сондерс, Дженнифер Хадсон, Гарт Дженнингс...

Описание: В мире, который населяют звери, коала по имени Бастер Мун изо всех сил пытается предотвратить закрытие своего театра. В итоге Бастер и его друг, баран Эдди, устраивают конкурс певцов, предлагая принять участие каждому жителю города.

Рейтинг
kinopoisk.ru 7.305 (31 844)
imdb.com 7.20 (57 846)

Качество видео: BDRip (исходник: Blu-ray disc / 1080p)
Формат видео: AVI | Sample
Видео: 704x384 (1.83:1), 23.976 fps, XviD build 73 ~2049 kbps avg, 0.32 bit/pixel
Аудио 1: 48 kHz, AC3 Dolby Digital, 3/2 (L,C,R,l,r) + LFE ch, ~384.00 kbps avg | RUS
Аудио 2: 48 kHz, AC3 Dolby Digital, 3/2 (L,C,R,l,r) + LFE ch, ~448.00 kbps avg | ENG
Формат : AVI
Формат/Информация : Audio Video Interleave
Профиль формата : OpenDML
Размер файла : 2,18 Гбайт
Продолжительность : 1 ч. 47 м.
Общий поток : 2898 Кбит/сек
Название фильма : Зверопой / Sing (2016)
Режиссёр : BDRip by Seven
Программа кодирования : VirtualDubMod 1.5.10.2 (build 2540/release)
Библиотека кодирования : VirtualDubMod build 2540/release

Видео
Идентификатор : 0
Формат : MPEG-4 Visual
Профиль формата : Advanced Simple@L5
Параметр BVOP формата : 1
Параметр QPel формата : Нет
Параметр GMC формата : Без точки перехода
Параметр матрицы формата : Выборочная
Идентификатор кодека : XVID
Идентификатор кодека/Подсказка : XviD
Продолжительность : 1 ч. 47 м.
Битрейт : 2049 Кбит/сек
Ширина : 704 пикселя
Высота : 384 пикселя
Соотношение сторон : 1,85:1
Частота кадров : 23,976 (24000/1001) кадра/сек
Цветовое пространство : YUV
Субдискретизация насыщенности : 4:2:0
Битовая глубина : 8 бит
Тип развёртки : Прогрессивная
Метод сжатия : С потерями
Бит/(Пиксели*Кадры) : 0.316
Размер потока : 1,54 Гбайт (71%)
Библиотека кодирования : XviD 73

Аудио #1
Идентификатор : 1
Формат : AC-3
Формат/Информация : Audio Coding 3
Параметр Endianness формата : Big
Идентификатор кодека : 2000
Продолжительность : 1 ч. 47 м.
Вид битрейта : Постоянный
Битрейт : 384 Кбит/сек
Каналы : 6 каналов
Расположение каналов : Front: L C R, Side: L R, LFE
Частота : 48,0 КГц
Частота кадров : 31,250 кадров/сек (1536 spf)
Битовая глубина : 16 бит
Метод сжатия : С потерями
Размер потока : 296 Мбайт (13%)
Выравнивание : Разделение по промежуткам
Продолжительность промежутка : 42 мс. (1,00 видеокадр)
Время предзагрузки промежутка : 500 мс.

Аудио #2
Идентификатор : 2
Формат : AC-3
Формат/Информация : Audio Coding 3
Параметр Endianness формата : Big
Идентификатор кодека : 2000
Продолжительность : 1 ч. 47 м.
Вид битрейта : Постоянный
Битрейт : 448 Кбит/сек
Каналы : 6 каналов
Расположение каналов : Front: L C R, Side: L R, LFE
Частота : 48,0 КГц
Частота кадров : 31,250 кадров/сек (1536 spf)
Битовая глубина : 16 бит
Метод сжатия : С потерями
Размер потока : 346 Мбайт (15%)
Выравнивание : Разделение по промежуткам
Продолжительность промежутка : 42 мс. (1,00 видеокадр)
Время предзагрузки промежутка : 500 мс.
info [Профиль]  [ЛС] 

narutouzumaki_13

Стаж: 4 года 9 месяцев

Сообщений: 18

Рейтинг

post 30-Май-2017 17:51 (спустя 8 часов) [-]-6[+]

[Цитировать] 

Что то с разрешением фигня какая то, совсем не фул хд.
info [Профиль]  [ЛС] 

deagle1992

Пол: Пол:Муж

Стаж: 5 лет 6 месяцев

Сообщений: 330

Россия
Рейтинг

post 31-Май-2017 19:36 (спустя 1 день 1 час) [-]6[+]

[Цитировать] 

narutouzumaki_13, ты видать на ленте раздачей промахнулся
http://tapochek.net/viewtopic.php?t=201266
info [Профиль]  [ЛС] 

narutouzumaki_13

Стаж: 4 года 9 месяцев

Сообщений: 18

Рейтинг

post 02-Июн-2017 12:57 (спустя 1 день 17 часов) [-]-1[+]

[Цитировать] 

deagle1992
Там то, как раз, все норм добавлено спустя 2 минуты 57 секунд:

Да вы хоть сэмпл скачайте и посмотрите на его разрешение. добавлено спустя 1 минута 40 секунд:

А качество в описании зачем то написали
"BDRip (исходник: Blu-ray disc / 1080p)"
Или я дурак и чего то не понимаю?
info [Профиль]  [ЛС] 

deagle1992

Пол: Пол:Муж

Стаж: 5 лет 6 месяцев

Сообщений: 330

Россия
Рейтинг

post 04-Июн-2017 12:40 (спустя 1 день 23 часа) [-]2[+]

[Цитировать] 

Цитата:

Или я дурак и чего то не понимаю?
Грубо говоря, да

Цитата:

Качество видео: BDRip (исходник: Blu-ray disc / 1080p)

Цитата:

Видео: 704x384 (1.83:1)
info [Профиль]  [ЛС] 
Показать сообщения:    
Ответить на тему

Текущее время: 19-Янв 19:45

Часовой пояс: GMT + 4



Вы не можете начинать темы
Вы не можете отвечать на сообщения
Вы не можете редактировать свои сообщения
Вы не можете удалять свои сообщения
Вы не можете голосовать в опросах
Вы не можете прикреплять файлы к сообщениям
Вы не можете скачивать файлы