Ошибка

Зверопой / Sing (Кристоф Лурделе, Гарт Дженнингс / Christophe Lourdelet, Garth Jennings) [2016, США, мультфильм, комедия, семейный, музыкальный, BDRip 720p] Dub + Ukr Dub + Original Eng + Sub Rus, Ukr, Eng

Ответить на тему
 
Автор Сообщение

L

Пол: Пол:Муж

Стаж: 7 лет 9 месяцев

Сообщений: 11827

Украина
Рейтинг

post 30-Май-2017 09:28 1[+]

[Цитировать] 

Зверопой / Sing
Страна: США
Жанр: мультфильм, комедия, семейный, музыкальный
Год выпуска: 2016
Продолжительность: 01:47:53
Перевод: Профессиональный (дублированный)
Русские субтитры: есть

Режиссер: Кристоф Лурделе, Гарт Дженнингс / Christophe Lourdelet, Garth Jennings
В ролях: Мэттью МакКонахи, Риз Уизерспун, Сет МакФарлейн, Скарлетт Йоханссон, Джон Си Райли, Тэрон Эджертон, Тори Келли, Дженнифер Сондерс, Дженнифер Хадсон, Гарт Дженнингс

Описание: В мире, который населяют звери, коала по имени Бастер Мун изо всех сил пытается предотвратить закрытие своего театра. В итоге Бастер и его друг, баран Эдди, устраивают конкурс певцов, предлагая принять участие каждому жителю города.

Релиз:

Семпл: http://sendfile.su/1337801

Тип релиза: BDRip 720p (TAiCHi)
Контейнер: MKV

Видео: 1280x692 at 23.976 fps, x264, ~6420 kbps avg
Аудио#1: Russian: 48 kHz, AC3, 3/2 (L,C,R,l,r) + LFE ch, ~640.00 kbps avg |Дубляж, Blu-ray CEE|
Аудио#2: Ukrainian: 48 kHz, AAC, 2/0 (L,R) ch, ~160.00 kbps avg |Дубляж, iTunes|
Аудио#3: English: 48 kHz, AC3, 3/2 (L,C,R,l,r) + LFE ch, ~640.00 kbps avg
Субтитры: Russian (Forced, iTunes), Russian (iTunes), Ukrainian (Forced, iTunes), English (SDH, iTunes)
General
Unique ID : 230723293289155282941357844878389607490 (0xAD93B09FFE97538A8C907BB686EEFC42)
Complete name : Sing.2016.720p.BluRay.Rus.Ukr.Eng.HDCLUB.mkv
Format : Matroska
Format version : Version 2
File size : 6.01 GiB
Duration : 1 h 47 min
Overall bit rate : 7 971 kb/s
Movie name : Sing (2016) - Release for HDCLUB
Encoded date : UTC 2017-05-27 19:47:06
Writing application : mkvmerge v3.4.0 ('Rapunzel') built on May 15 2010 09:38:20
Writing library : libebml v0.8.0 + libmatroska v0.9.0

Video
ID : 1
Format : AVC
Format/Info : Advanced Video Codec
Format profile : High@L4.1
Format settings, CABAC : Yes
Format settings, ReFrames : 9 frames
Codec ID : V_MPEG4/ISO/AVC
Duration : 1 h 47 min
Width : 1 280 pixels
Height : 692 pixels
Display aspect ratio : 1.85:1
Frame rate mode : Constant
Frame rate : 23.976 (24000/1001) FPS
Color space : YUV
Chroma subsampling : 4:2:0
Bit depth : 8 bits
Scan type : Progressive
Title : Sing (2016) - Release for HDCLUB
Writing library : x264 core 148 r2744+55 950084e t_mod_Custom [8-bit@all X86_64]
Encoding settings : cabac=1 / ref=9 / deblock=1:-3:-3 / analyse=0x3:0x133 / me=umh / subme=11 / psy=1 / fade_compensate=0.00 / psy_rd=1.00:0.00 / mixed_ref=1 / me_range=32 / chroma_me=1 / trellis=2 / 8x8dct=1 / cqm=0 / deadzone=21,11 / fast_pskip=0 / chroma_qp_offset=-2 / threads=6 / lookahead_threads=1 / sliced_threads=0 / nr=0 / decimate=0 / interlaced=0 / bluray_compat=0 / constrained_intra=0 / fgo=0 / bframes=10 / b_pyramid=2 / b_adapt=2 / b_bias=0 / direct=3 / weightb=1 / open_gop=0 / weightp=2 / keyint=250 / keyint_min=23 / scenecut=40 / intra_refresh=0 / rc_lookahead=60 / rc=crf / mbtree=0 / crf=17.2000 / qcomp=0.65 / qpmin=0:0:0 / qpmax=69:69:69 / qpstep=4 / vbv_maxrate=62500 / vbv_bufsize=78125 / crf_max=0.0 / nal_hrd=none / filler=0 / ip_ratio=1.30 / pb_ratio=1.20 / aq=3:0.80 / aq-sensitivity=10.00 / aq-factor=1.00:1.00:1.00 / aq2=0 / aq3=0 / zones=27,1151,crf=15
Language : English
Default : Yes
Forced : No

Audio #1
ID : 2
Format : AC-3
Format/Info : Audio Coding 3
Format settings, Endianness : Big
Codec ID : A_AC3
Duration : 1 h 47 min
Bit rate mode : Constant
Bit rate : 640 kb/s
Channel(s) : 6 channels
Channel positions : Front: L C R, Side: L R, LFE
Sampling rate : 48.0 kHz
Frame rate : 31.250 FPS (1536 spf)
Bit depth : 16 bits
Compression mode : Lossy
Stream size : 494 MiB (8%)
Title : AC3 5.1 @ 640 kbps - DUB, Blu-ray CEE
Language : Russian
Service kind : Complete Main
Default : Yes
Forced : No

Audio #2
ID : 3
Format : AAC
Format/Info : Advanced Audio Codec
Format profile : HE-AAC / LC
Codec ID : A_AAC
Duration : 1 h 47 min
Channel(s) : 2 channels
Channel positions : Front: L R
Sampling rate : 88.2 kHz / 44.1 kHz
Frame rate : 43.066 FPS (1024 spf)
Compression mode : Lossy
Title : AAC 2.0 @ 160 kbps - DUB, iTunes
Language : Ukrainian
Default : No
Forced : No

Audio #3
ID : 4
Format : AC-3
Format/Info : Audio Coding 3
Format settings, Endianness : Big
Codec ID : A_AC3
Duration : 1 h 47 min
Bit rate mode : Constant
Bit rate : 640 kb/s
Channel(s) : 6 channels
Channel positions : Front: L C R, Side: L R, LFE
Sampling rate : 48.0 kHz
Frame rate : 31.250 FPS (1536 spf)
Bit depth : 16 bits
Compression mode : Lossy
Stream size : 494 MiB (8%)
Title : AC3 5.1 @ 640 kbps
Language : English
Service kind : Complete Main
Default : No
Forced : No

Text #1
ID : 5
Format : UTF-8
Codec ID : S_TEXT/UTF8
Codec ID/Info : UTF-8 Plain Text
Title : Forced, iTunes
Language : Russian
Default : Yes
Forced : No

Text #2
ID : 6
Format : UTF-8
Codec ID : S_TEXT/UTF8
Codec ID/Info : UTF-8 Plain Text
Title : iTunes
Language : Russian
Default : No
Forced : No

Text #3
ID : 7
Format : UTF-8
Codec ID : S_TEXT/UTF8
Codec ID/Info : UTF-8 Plain Text
Title : Forced, iTunes
Language : Ukrainian
Default : No
Forced : No

Text #4
ID : 8
Format : UTF-8
Codec ID : S_TEXT/UTF8
Codec ID/Info : UTF-8 Plain Text
Title : SDH, iTunes
Language : English
Default : No
Forced : No

Menu
00:00:00.000 : en:00:00:00.000
00:04:29.352 : en:00:04:29.352
00:10:36.469 : en:00:10:36.469
00:14:04.677 : en:00:14:04.677
00:18:32.653 : en:00:18:32.653
00:25:14.722 : en:00:25:14.722
00:30:04.052 : en:00:30:04.052
00:35:11.776 : en:00:35:11.776
00:40:07.405 : en:00:40:07.405
00:44:36.132 : en:00:44:36.132
00:50:26.649 : en:00:50:26.649
00:55:36.208 : en:00:55:36.208
01:04:40.710 : en:01:04:40.710
01:14:03.981 : en:01:14:03.981
01:19:17.962 : en:01:19:17.962
01:23:59.159 : en:01:23:59.159
01:26:56.461 : en:01:26:56.461
01:30:38.266 : en:01:30:38.266
01:34:47.181 : en:01:34:47.181
01:40:16.010 : en:01:40:16.010
info [Профиль]  [ЛС] 

_scsi_

Пол: Пол:Муж

Стаж: 7 лет 9 месяцев

Сообщений: 584

СССР
Рейтинг

post 03-Июн-2017 19:35 (спустя 4 дня) [-]0[+]

[Цитировать] 

классный мульт.
info [Профиль]  [ЛС] 
Показать сообщения:    
Ответить на тему

Текущее время: 20-Янв 17:10

Часовой пояс: GMT + 4



Вы не можете начинать темы
Вы не можете отвечать на сообщения
Вы не можете редактировать свои сообщения
Вы не можете удалять свои сообщения
Вы не можете голосовать в опросах
Вы не можете прикреплять файлы к сообщениям
Вы не можете скачивать файлы