Ошибка

Форма голоса / Eiga Koe no Katachi [Movie] [2016] [Драма, психология, романтика, школа] [BDRip1080p] [Любительская]

Ответить на тему
 
Автор Сообщение

Chel90RUS

Пол: Пол:Муж

Стаж: 6 лет

Сообщений: 487

Россия
Рейтинг

post 24-Май-2017 22:06 2[+]

[Цитировать] 

pic="http://static2.anidub.com/tracker/poster/46ec554768.jpg"
Форма голоса
The Shape of Voice / Koe no Katachi / 聲の形

Год выпуска: 2016
Жанр: Драма, психология, романтика, школа
Страна: Япония
Тип: BDRip
Продолжительность: 129 мин
Дата выпуска: 17.09.2016
Режиссер: Ямада Наоко
Автор оригинала / Сценарист: Ойма Ёситоки
Озвучено: JAM, Trina_D
Перевод: drnndy
Тайминг и работа со звуком: Fraksinus
Студия: Kyoto Animation
Аудио: AAC 48000Hz stereo 192kbps [A: English [eng] (aac lc, 48000 Hz, stereo, 192 kb/s)]
Видео: MPEG4 Video (H264) 1920x1036 23.976fps [V: h264 high L4.0, yuv420p, 1920x1036 [default]]
General
Unique ID : 221313193099424941216475181749415726035 (0xA67F5EDD8840D200998315F5C02C4BD3)
Complete name : \[AniDub]_Eiga_Koe_no_Katachi_[BDRip_1920x1080_x264_Aac]_[JAM_Trina_D].mkv
Format : Matroska
Format version : Version 4 / Version 2
File size : 5.83 GiB
Duration : 2 h 9 min
Overall bit rate : 6 439 kb/s
Encoded date : UTC 2017-05-23 11:19:49
Writing application : mkvmerge v9.2.0 ('Photograph') 64bit
Writing library : libebml v1.3.3 + libmatroska v1.4.4

Video
ID : 1
Format : AVC
Format/Info : Advanced Video Codec
Format profile : High@L4
Format settings, CABAC : Yes
Format settings, ReFrames : 4 frames
Codec ID : V_MPEG4/ISO/AVC
Duration : 2 h 9 min
Bit rate : 6 245 kb/s
Width : 1 920 pixels
Height : 1 036 pixels
Display aspect ratio : 1.85:1
Frame rate mode : Constant
Frame rate : 23.976 (24000/1001) FPS
Color space : YUV
Chroma subsampling : 4:2:0
Bit depth : 8 bits
Scan type : Progressive
Bits/(Pixel*Frame) : 0.131
Stream size : 5.66 GiB (97%)
Writing library : x264 core 148
Encoding settings : opencl=1 / cabac=1 / ref=4 / deblock=1:-2:-2 / analyse=0x3:0x113 / me=umh / subme=9 / psy=1 / psy_rd=0.70:0.00 / mixed_ref=0 / me_range=32 / chroma_me=1 / trellis=2 / 8x8dct=1 / cqm=0 / deadzone=21,11 / fast_pskip=1 / chroma_qp_offset=-2 / threads=8 / lookahead_threads=1 / sliced_threads=0 / nr=0 / decimate=1 / interlaced=0 / bluray_compat=0 / constrained_intra=0 / bframes=9 / b_pyramid=2 / b_adapt=2 / b_bias=0 / direct=3 / weightb=1 / open_gop=0 / weightp=2 / keyint=250 / keyint_min=23 / scenecut=40 / intra_refresh=0 / rc_lookahead=40 / rc=crf / mbtree=1 / crf=16.0 / qcomp=0.70 / qpmin=10 / qpmax=20 / qpstep=4 / ip_ratio=1.40 / aq=1:1.00
Default : Yes
Forced : No

Audio
ID : 2
Format : AAC
Format/Info : Advanced Audio Codec
Format profile : LC
Codec ID : A_AAC
Duration : 2 h 9 min
Bit rate : 192 kb/s
Channel(s) : 2 channels
Channel positions : Front: L R
Sampling rate : 48.0 kHz
Frame rate : 46.875 FPS (1024 spf)
Compression mode : Lossy
Stream size : 178 MiB (3%)
Language : English
Default : Yes
Forced : No


Описание:История сложных судеб двух подростков. У героини проблемы со слухом, из-за чего в обычной школе она вызывала раздражение одноклассников. Раздражение вылилось в издевательства. Герой был одним из зачинщиков издевательств. Но хоть и были виноваты все, когда пришло время кого-то обвинить, только он стал общепризнанным злодеем. И новым объектов издевательств. Прошли годы, и у парня осталось лишь одно желание: попросить прощения...
info [Профиль]  [ЛС] 

GreenBlaze

Стаж: 3 года 1 месяц

Сообщений: 33

Рейтинг

post 25-Май-2017 20:03 (спустя 21 час) [-]1[+]

[Цитировать] 

Лучшее, что я смотрел в этом году!
info [Профиль]  [ЛС] 

kirsan1212

Стаж: 3 года 2 месяца

Сообщений: 297

Рейтинг

post 25-Май-2017 21:22 (спустя 1 час 18 минут) [-]1[+]

[Цитировать] 

Оч крутая штука, умеют же делать.
info [Профиль]  [ЛС] 
Показать сообщения:    
Ответить на тему

Текущее время: 28-Июл 23:02

Часовой пояс: GMT + 4



Вы не можете начинать темы
Вы не можете отвечать на сообщения
Вы не можете редактировать свои сообщения
Вы не можете удалять свои сообщения
Вы не можете голосовать в опросах
Вы не можете прикреплять файлы к сообщениям
Вы не можете скачивать файлы