Ошибка

Мастер скиллов / Quan Zhi Gao Shou / Master of skill / The King's Avatar / Аватар короля [TV] [01-08 из 12][2017][ приключения, киберспорт, экшен, комедия][WEBRip] [1080p][Хардсаб][Субтитры (CHI)]

Ответить на тему
 
Автор Сообщение

GreeDamage

Пол: Пол:Муж

Стаж: 4 года 2 месяца

Сообщений: 5

Япония
Рейтинг

post 03-Май-2017 19:01 2[+]

[Цитировать] 

Мастер скиллов | Аватар короля
Master of skill | The King's Avatar | Quan Zhi Gao Shou | 全职高手

Год выпуска: 2017г
Страна: Китай
Жанр: приключения, киберспорт, экшен, комедия
Тип: TV
Продолжительность: (12 эп. по ~25 мин.)
Студия: G.CMay Animation & Film[/url]
Режиссер: (Сюн Ke)
Русские субтитры: ASS, внешним файлом
  1. SovetRomantica - (эп. 01-05)
    Перевод: elfloo
    Редактура: Ristretto

  2. AniPlay - (эп. 03-08)
    Перевод: Hikari_Licht
    Редактура: Octupus

  3. YakuSub Studio - (эп. 01-03)
    Перевод: Lulu
    Редактура: Aero
    Оформление: Nika_Elrik

Описание:
Онлайн-игры в буквальном смысле захватили весь мир. В них играют очень многие, наверняка и вы тоже, если не постоянно, то хотя бы раз пробовали поиграть. Современный рынок может предложить игру на любой вкус - никто не останется равнодушным. Аниме про онлайн-игры тоже достаточно много, этот жанр стал одним из популярных, и вы без труда вспомните пару-тройку названий, где ключевой темой является игра. Поднебесная тоже решила представить нам вариант такого сериала. Посмотрим, что же из этого выйдет.
Главный герой Е Сю играет в MMORPG под названием "Слава”. Но он не какой-нибудь там заурядный игрок, а настоящий монстр своего дела. Е Сю - эксперт и находится на вершине этой игры, но однажды ему приходится покинуть команду профессионалов. После этого он решает зажить обычной жизнью и устраивается на работу в интернет-кафе. Но когда "Слава” запустила десятый сервер, он не удержался и начал играть снова. Конечно, его уже обогнали более шустрые игроки, и теперь Е Сю придётся вновь бороться за место под солнцем.

Автор рипа:国产
Качество: WEBRip
Тип релиза: Хардсаб (китайский)
Формат видео: MPEG-4
Видео: x264 (8 bit), 1920x1080, ~2516 Kbps, 25.000 fps
Аудио CHI: AAC, 48000 Hz, ~128 Kbps, 2 ch
General
Complete name : N:\Download\The King's Avatar (Quan Zhi Gao Shou) [WEBRip 1080p]\The King's Avatar [Quan Zhi Gao Shou] 01 [1080P].mp4
Format : MPEG-4
Format profile : Base Media
Codec ID : isom
File size : 476 MiB
Duration : 25mn 7s
Overall bit rate : 2 650 Kbps
Writing application : Lavf56.15.102

Video
ID : 1
Format : AVC
Format/Info : Advanced Video Codec
Format profile : High@L4.0
Format settings, CABAC : Yes
Format settings, ReFrames : 4 frames
Codec ID : avc1
Codec ID/Info : Advanced Video Coding
Duration : 25mn 7s
Bit rate : 2 516 Kbps
Width : 1 920 pixels
Height : 1 080 pixels
Display aspect ratio : 16:9
Frame rate mode : Constant
Frame rate : 25.000 fps
Color space : YUV
Chroma subsampling : 4:2:0
Bit depth : 8 bits
Scan type : Progressive
Bits/(Pixel*Frame) : 0.049
Stream size : 452 MiB (95%)
Writing library : x264 core 144 r2525 40bb568
Encoding settings : cabac=1 / ref=3 / deblock=1:0:0 / analyse=0x3:0x113 / me=hex / subme=7 / psy=1 / psy_rd=1.00:0.00 / mixed_ref=1 / me_range=16 / chroma_me=1 / trellis=1 / 8x8dct=1 / cqm=0 / deadzone=21,11 / fast_pskip=1 / chroma_qp_offset=-2 / threads=6 / lookahead_threads=1 / sliced_threads=0 / nr=0 / decimate=1 / interlaced=0 / bluray_compat=0 / constrained_intra=0 / bframes=3 / b_pyramid=2 / b_adapt=1 / b_bias=0 / direct=1 / weightb=1 / open_gop=0 / weightp=2 / keyint=250 / keyint_min=25 / scenecut=40 / intra_refresh=0 / rc_lookahead=40 / rc=crf / mbtree=1 / crf=23.0 / qcomp=0.60 / qpmin=0 / qpmax=69 / qpstep=4 / ip_ratio=1.40 / aq=1:1.00

Audio
ID : 2
Format : AAC
Format/Info : Advanced Audio Codec
Format profile : LC
Codec ID : 40
Duration : 25mn 7s
Bit rate mode : Constant
Bit rate : 128 Kbps
Channel(s) : 2 channels
Channel positions : Front: L R
Sampling rate : 48.0 KHz
Compression mode : Lossy
Stream size : 23.0 MiB (5%)
info [Профиль]  [ЛС] 

Alexxator

Стаж: 6 лет 8 месяцев

Сообщений: 1146

Предупреждений: 1

Рейтинг

post 03-Май-2017 22:39 (спустя 3 часа) [-]0[+]

[Цитировать] 

Китай? Оценил бы, да боязно. Так что рассказывайте, смотревшие - как оно? С меня печеньки С:
info [Профиль]  [ЛС] 

assa770

Пол: Пол:Муж

Стаж: 4 года 2 месяца

Сообщений: 8

Украина
Рейтинг

post 04-Май-2017 00:15 (спустя 1 час 36 минут) [-]0[+]

[Цитировать] 

Рисовка,конечно так себе,но сюжет интересный,без особых "соплей" . Четыре из пяти.
info [Профиль]  [ЛС] 

Naugrim

Пол: Пол:Муж

Стаж: 5 лет

Сообщений: 24

Кот-д’Ивуар
Рейтинг

post 04-Май-2017 01:08 (спустя 53 минуты) [-]1[+]

[Цитировать] 

Ранобэ читал. 10 из 10 для геймеров. В экранизации говорят, конечно, много сократили и выкинули, но как полностью выйдет, обязательно посмотрю.

_________________
info [Профиль]  [ЛС] 

Akrident

Пол: Пол:Муж

Стаж: 4 года 2 месяца

Сообщений: 38

Рейтинг

post 04-Май-2017 02:18 (спустя 1 час 9 минут) [-]1[+]

[Цитировать] 

Красивая рисовка, мне очень нравится, яркая и сочная.
Только персонажи слегка кое-где отличаются, младше/старше чем должны быть.

Naugrim писал(а):

Ранобэ читал. В экранизации говорят, конечно, много сократили и выкинули.
Так и есть.
Даже основные моменты не удосужились объяснить
info [Профиль]  [ЛС] 

Thifer

Пол: Пол:Муж

Стаж: 7 лет 10 месяцев

Сообщений: 124

Россия
Рейтинг

post 04-Май-2017 18:39 (спустя 16 часов) [-]0[+]

[Цитировать] 

ох, после комменентов смотреть как-то боязно стало и даже не из-за китайщины, просто ранобка очень уж понравилась.Ну да ладно, подожду пока полностью выйдет, а там уже если не забуду Смеюсь

_________________
info [Профиль]  [ЛС] 

Kindaro

Стаж: 5 лет 10 месяцев

Сообщений: 7

Рейтинг

post 05-Май-2017 00:08 (спустя 5 часов) [-]2[+]

[Цитировать] 

Сабы к 3-5 сериям ужасны. Все эти Ю Сюнь Пю и прочие Е Чюн Бынь (условно) заставляют глаза кровоточить.
Буду ждать выхода всех серий и перевода от YakuSub Studio - не знаю кто эти люди, но смотреть с их сабами одно удовольствие.
З.Ы. Спасибо за раздачу, годнота.
info [Профиль]  [ЛС] 

GreeDamage

Пол: Пол:Муж

Стаж: 4 года 2 месяца

Сообщений: 5

Япония
Рейтинг

post 08-Май-2017 10:43 (спустя 3 дня) [-]1[+]

[Цитировать] 

Добавлена 6 серия
Русские субтитры: ASS, внешним файлом

SovetRomantica - (эп. 01-04)

AniPlay - (эп. 03-06)теперь с именами
было: Ай Дзоу Ре Нао, Цзюн Мо Сяо, Фэн Шуа Ен Мо, Хань Ен Роу
стало: Любимец Толпы, Мрачный Лорд, Очищающая Мгла, Мягкая Мгла

YakuSub Studio - (эп. 01-03)
info [Профиль]  [ЛС] 

GreeDamage

Пол: Пол:Муж

Стаж: 4 года 2 месяца

Сообщений: 5

Япония
Рейтинг

post 13-Май-2017 23:32 (спустя 5 дней) [-]0[+]

[Цитировать] 

Замена 6 серии почище рип
Добавлена 7
Спидсабы пока от AniPlay
info [Профиль]  [ЛС] 

Cront

Пол: Пол:Муж

Стаж: 5 лет 8 месяцев

Сообщений: 75

Бангладеш
Рейтинг

post 14-Май-2017 15:57 (спустя 16 часов) [-]1[+]

[Цитировать] 

До выхода этого аниме думал, что Китайцы рисуют те самые 10 кадров между ключевыми в Японском аниме. Или же Huyao Xiao Hongniang, Aishen Qiaokeli-ing и тп.
Как оказалось аниме довольно хорошее по нынешним меркам, серьезный сюжет, хорошая рисовка (В холодных тонах, более большая контрастность между светом и тенью предает четкости и реалистичности).

_________________
info [Профиль]  [ЛС] 

GreeDamage

Пол: Пол:Муж

Стаж: 4 года 2 месяца

Сообщений: 5

Япония
Рейтинг

post 20-Май-2017 22:20 (спустя 6 дней) [-]1[+]

[Цитировать] 

Добавлена 8
Спидсабы от AniPlay
info [Профиль]  [ЛС] 

Kirill

Пол: Пол:Муж

Стаж: 6 лет 8 месяцев

Сообщений: 220

Россия
Рейтинг

post 27-Май-2017 22:45 (спустя 7 дней) [-]0[+]

[Цитировать] 

тем временем завезли уже 9-ю серию в спидсабах
info [Профиль]  [ЛС] 
Показать сообщения:    
Ответить на тему

Текущее время: 28-Май 10:41

Часовой пояс: GMT + 4



Вы не можете начинать темы
Вы не можете отвечать на сообщения
Вы не можете редактировать свои сообщения
Вы не можете удалять свои сообщения
Вы не можете голосовать в опросах
Вы не можете прикреплять файлы к сообщениям
Вы не можете скачивать файлы