Ошибка
Загрузка...

Балерина / Ballerina (Эрик Саммер, Эрик Уорин) [2016, мультфильм, мюзикл, комедия, приключения, семейный, BDRip 1080p] [iTunes]

Ответить на тему
 
Автор Сообщение

DENZEL519

Пол: Пол:Муж

Стаж: 6 лет 1 месяц

Сообщений: 642

СССР
Рейтинг

post 14-Апр-2017 05:01 8[+]

[Цитировать] 

Балерина / Ballerina
«Never give up on your dreams»

Год выпуска: 2016
Страна: Франция, Канада
Жанр: мультфильм, мюзикл, комедия, приключения, семейный
Продолжительность: 01:29:34
Перевод: Дублированный [iTunes]
Субтитры: Английские
Режиссер: Эрик Саммер, Эрик Уорин
Сценарий: Эрик Саммер, Лорен Зэйтун, Кэрол Ноубл
Продюсер: Валери д’Отей, Николя Дюваль-Адассовски, Андре Руле
Оператор: Джерика Клилэнд
Композитор: Клаус Бадельт
Монтаж: Бенжамен Массубр, Миренда Уэлле, Иванн Тибодо
В ролях: Эль Фаннинг / Elle Fanning (Félicie Milliner, озвучка), Карли Рэй Джепсен / Carly Rae Jepsen (Odette, озвучка), Мэдди Зиглер / Maddie Ziegler (Camille Le Haut, озвучка), Терренс Скаммелл / Terrence Scammell (Mérante / Postman, озвучка), Tamir Kapelian (Rudolph / Mathurin, озвучка), Джули Ханер / Julie Khaner (Régine Le Haut, озвучка), Джо Шеридан / Joe Sheridan (Director of Opera, озвучка), Элана Дункельман / Elana Dunkelman (Dora / Rosita, озвучка), Шошана Спелинг / Shoshana Sperling (Nora, озвучка), Джэми Уотсон / Jamie Watson (Greasy Guard / Janitor, озвучка), Бронуэн Мэнтел / Bronwen Mantel (Mother Superior, озвучка), Мэл Брукс / Mel Brooks



Описание: События развернутся вокруг маленькой сиротки, которая, следуя за мечтой стать балериной, приезжает в Париж в 1879 году.


Качество: BDRip 1080p
Формат: MKV
Видео кодек: AVC
Аудио кодек: AC3
Видео: 1920x816 (2.35:1), 24.000 fps, AVC, 7 500 Kbps
Аудио: Аудио #1: AC3, 384 Kbps, 48.0 KHz, 6 ch [Rus]
Аудио #2: AC3, 384 Kbps, 48.0 KHz, 6 ch [Ukr]
Аудио #3: AC3, 640 Kbps, 48.0 KHz, 6 ch [Eng]



Код:

General
Unique ID                                : 246992892218599292064993417540008872441 (0xB9D119C89E98E7B3BFC886D1505F09F9)
Complete name                            : Ballerina.2016.1080p.mkv
Format                                   : Matroska
Format version                           : Version 4 / Version 2
File size                                : 5.56 GiB
Duration                                 : 1h 29mn
Overall bit rate                         : 8 883 Kbps
Encoded date                             : UTC 2017-04-13 22:01:40
Writing application                      : mkvmerge v9.9.0 ('Pick Up') 64bit
Writing library                          : libebml v1.3.4 + libmatroska v1.4.5

Video
ID                                       : 1
Format                                   : AVC
Format/Info                              : Advanced Video Codec
Format profile                           : High@L4.0
Format settings, CABAC                   : Yes
Format settings, ReFrames                : 5 frames
Codec ID                                 : V_MPEG4/ISO/AVC
Duration                                 : 1h 29mn
Bit rate                                 : 7 500 Kbps
Width                                    : 1 920 pixels
Height                                   : 816 pixels
Display aspect ratio                     : 2.35:1
Frame rate mode                          : Constant
Frame rate                               : 24.000 fps
Color space                              : YUV
Chroma subsampling                       : 4:2:0
Bit depth                                : 8 bits
Scan type                                : Progressive
Bits/(Pixel*Frame)                       : 0.199
Stream size                              : 4.57 GiB (82%)
Writing library                          : x264 core 148 r2638 7599210
Encoding settings                        : cabac=1 / ref=5 / deblock=1:-3:-3 / analyse=0x3:0x133 / me=umh / subme=11 / psy=1 / psy_rd=1.00:0.00 / mixed_ref=1 / me_range=32 / chroma_me=1 / trellis=2 / 8x8dct=1 / cqm=0 / deadzone=21,11 / fast_pskip=0 / chroma_qp_offset=-2 / threads=12 / lookahead_threads=3 / sliced_threads=0 / nr=0 / decimate=0 / interlaced=0 / bluray_compat=0 / constrained_intra=0 / bframes=10 / b_pyramid=2 / b_adapt=2 / b_bias=0 / direct=3 / weightb=1 / open_gop=0 / weightp=2 / keyint=240 / keyint_min=22 / scenecut=40 / intra_refresh=0 / rc=2pass / mbtree=0 / bitrate=7500 / ratetol=1.0 / qcomp=0.60 / qpmin=0 / qpmax=69 / qpstep=4 / cplxblur=20.0 / qblur=0.5 / ip_ratio=1.40 / pb_ratio=1.30 / aq=2:0.70
Default                                  : Yes
Forced                                   : No

Audio #1
ID                                       : 2
Format                                   : AC-3
Format/Info                              : Audio Coding 3
Mode extension                           : CM (complete main)
Format settings, Endianness              : Big
Codec ID                                 : A_AC3
Duration                                 : 1h 29mn
Bit rate mode                            : Constant
Bit rate                                 : 384 Kbps
Channel(s)                               : 6 channels
Channel positions                        : Front: L C R, Side: L R, LFE
Sampling rate                            : 48.0 KHz
Bit depth                                : 16 bits
Compression mode                         : Lossy
Stream size                              : 246 MiB (4%)
Title                                    : iTunes
Language                                 : Russian
Default                                  : Yes
Forced                                   : No

Audio #2
ID                                       : 3
Format                                   : AC-3
Format/Info                              : Audio Coding 3
Mode extension                           : CM (complete main)
Format settings, Endianness              : Big
Codec ID                                 : A_AC3
Duration                                 : 1h 29mn
Bit rate mode                            : Constant
Bit rate                                 : 384 Kbps
Channel(s)                               : 6 channels
Channel positions                        : Front: L C R, Side: L R, LFE
Sampling rate                            : 48.0 KHz
Bit depth                                : 16 bits
Compression mode                         : Lossy
Stream size                              : 246 MiB (4%)
Title                                    : iTunes
Language                                 : Ukrainian
Default                                  : No
Forced                                   : No

Audio #3
ID                                       : 4
Format                                   : AC-3
Format/Info                              : Audio Coding 3
Mode extension                           : CM (complete main)
Format settings, Endianness              : Big
Codec ID                                 : A_AC3
Duration                                 : 1h 29mn
Bit rate mode                            : Constant
Bit rate                                 : 640 Kbps
Channel(s)                               : 6 channels
Channel positions                        : Front: L C R, Side: L R, LFE
Sampling rate                            : 48.0 KHz
Bit depth                                : 16 bits
Compression mode                         : Lossy
Stream size                              : 410 MiB (7%)
Language                                 : English
Default                                  : No
Forced                                   : No

Text
ID                                       : 5
Format                                   : PGS
Muxing mode                              : zlib
Codec ID                                 : S_HDMV/PGS
Codec ID/Info                            : The same subtitle format used on BDs/HD-DVDs
Title                                    : English
Language                                 : English
Default                                  : No
Forced                                   : No

Menu
00:00:00.000                             : en:Chapter 01
00:04:54.000                             : en:Chapter 02
00:10:58.291                             : en:Chapter 03
00:13:54.125                             : en:Chapter 04
00:18:00.875                             : en:Chapter 05
00:23:18.750                             : en:Chapter 06
00:28:03.541                             : en:Chapter 07
00:32:55.000                             : en:Chapter 08
00:36:14.458                             : en:Chapter 09
00:41:19.833                             : en:Chapter 10
00:44:54.708                             : en:Chapter 11
00:50:25.000                             : en:Chapter 12
00:56:41.791                             : en:Chapter 13
01:02:39.458                             : en:Chapter 14
01:08:48.750                             : en:Chapter 15
01:13:12.666                             : en:Chapter 16
01:17:43.958                             : en:Chapter 17
01:22:49.916                             : en:Chapter 18

» Эль Фаннинг озвучила Фелисию, которая мечтает получить главную роль в балете «Щелкунчик». В 2010 году на экраны вышел фильм Андрея Кончаловского «Щелкунчик и Крысиный король», главную роль в котором исполнила Фаннинг.

Бюджет: $30 000 000
Сборы в России: $4 422 117
Зрители: Россия 1.16 млн
Премьера (мир): 19 октября 2016
Премьера (РФ): 26 января 2017



Время раздачи: 24/7 (до появления первых 3-5 скачавших)

info [Профиль]  [ЛС] 

Конгрик

Пол: Пол:Муж

Стаж: 4 года 10 месяцев

Сообщений: 280

Россия
Рейтинг

post 14-Апр-2017 19:26 (спустя 14 часов) [-]-7[+]

[Цитировать] 

Первый коммент мой :-)

Беру для просмотра вместе с женой) Как посмотрю - отпишусь.

_________________
info [Профиль]  [ЛС] 

DarkBercut

Пол: Пол:Муж

Стаж: 7 лет 9 месяцев

Сообщений: 89

Россия
Рейтинг

post 14-Апр-2017 19:33 (спустя 6 минут) [-]-1[+]

[Цитировать] 

Скачал детям, включаю, а там артефактов вагон(((( это с релизом связанно (как в прибытии) или это только у меня?

_________________
info [Профиль]  [ЛС] 

DENZEL519

Пол: Пол:Муж

Стаж: 6 лет 1 месяц

Сообщений: 642

СССР
Рейтинг

post 14-Апр-2017 19:50 (спустя 17 минут) [-]1[+]

[Цитировать] 

DarkBercut
Проверил, всё работает как надо. Через что смотрите?

_________________
▶ ▷ Правила, основные инструкции, советы, FAQ ◁ ◀
▶ ▷ Неблагодарность убивает энтузиазм! ◁ ◀
info [Профиль]  [ЛС] 

DarkBercut

Пол: Пол:Муж

Стаж: 7 лет 9 месяцев

Сообщений: 89

Россия
Рейтинг

post 14-Апр-2017 20:49 (спустя 59 минут) [-]0[+]

[Цитировать] 

DENZEL519 писал(а):

DarkBercut
Проверил, всё работает как надо. Через что смотрите?
Через MP Classic, остальные видео у меня проигрываются нормально((

_________________
info [Профиль]  [ЛС] 

Evgen Ovtsebykoff

Пол: Пол:Муж

Стаж: 2 года 4 месяца

Сообщений: 48

СССР
Рейтинг

post 14-Апр-2017 22:01 (спустя 1 час 11 минут) [-]1[+]

[Цитировать] 

DarkBercut
Смотрел через MPC, всё нормально

_________________
i7 4770K 4.1 GHz - GTX 1080 8GB - 16GB RAM
info [Профиль]  [ЛС] 

DarkBercut

Пол: Пол:Муж

Стаж: 7 лет 9 месяцев

Сообщений: 89

Россия
Рейтинг

post 14-Апр-2017 22:06 (спустя 5 минут) [-]0[+]

[Цитировать] 

Спасибо, буду у себя рыться

_________________
info [Профиль]  [ЛС] 

post 22-Июн-2017 08:48 (спустя 2 месяца 7 дней) [-]0[+]

Топик был перенесен из форума Новинки 2016-2017 (Web-DL, DVD, HD DVD, Blu-ray, HD Rips) в форум Мультфильмы (HD Video)

L
 
Показать сообщения:    
Ответить на тему

Текущее время: 19-Авг 02:06

Часовой пояс: GMT + 4



Вы не можете начинать темы
Вы не можете отвечать на сообщения
Вы не можете редактировать свои сообщения
Вы не можете удалять свои сообщения
Вы не можете голосовать в опросах
Вы не можете прикреплять файлы к сообщениям
Вы не можете скачивать файлы