Ошибка

Возрождающие/ Re:Creators [TV] [1-3 из 22] [2017] [Приключения, Экшен] [WEBRip] [1080p] [Субтитры (JAP)]

Ответить на тему
 
Автор Сообщение

anoningen

Стаж: 3 года 11 месяцев

Сообщений: 411

Самоа
Рейтинг

post 10-Апр-2017 22:47 0[+]

[Цитировать] 

Возрождающие
Re:Creators | レクリエイターズ

Год выпуска:
2017.
Тип: TV
Жанр: Приключения, Экшен
Режиссер: Аоки Эй
Автор оригинала: Хироэ Рэй
Студия:
Продолжительность: >24 эп. по 25 мин
Русские субтитры: ASS, внешним файлом

Переводчик: Бульбазавр [SovetRomantica]
Редактор: SYMRAK [SovetRomantica]
Сверка: Alex Drake [SovetRomantica]

Описание:
Каждому литературному произведению соответствует свой собственный параллельный мир, жизнь которого складывается так, как описывал это автор. Таким образом, мир в котором живут авторы этих произведений, является для литературных персонажей миром богов. Обычно литературные персонажи не осознают существования мира в котором они придуманы. Однако, однажды они начинают проникать в мир богов.
Автор рипа: HorribleSubs
Качество: WEBRip
Формат видео: MPEG-4
Видео: AVC, 8 бит, 1920x1080; 23.976 кадра/сек; 4035 Кбит/сек, (16:9)
Аудио: AAC, 48,0 КГц, 125 Кбит/сек, 2 канала
Общее
Уникальный идентификатор : 179596647427635457988780062519882977338 (0x871D0E5DD4ADA3E3BB6557D41CC8903A)
Полное имя : G:\Anime\Re Creators\[HorribleSubs] Re-Creators - 01v2 [1080p].mkv
Формат : Matroska
Версия формата : Version 4 / Version 2
Размер файла : 705 Мбайт
Продолжительность : 23 м. 39 с.
Режим общего битрейта : Переменный
Общий поток : 4164 Кбит/сек
Дата кодирования : UTC 2017-04-19 15:03:01
Программа кодирования : mkvmerge v9.3.1 ('Mask Machine') 64bit
Библиотека кодирования : libebml v1.3.4 + libmatroska v1.4.5
Attachments : OpenSans-Semibold.ttf

Видео
Идентификатор : 1
Формат : AVC
Формат/Информация : Advanced Video Codec
Профиль формата : High@L4
Параметр CABAC формата : Да
Параметр ReFrames формата : 4 кадра
Идентификатор кодека : V_MPEG4/ISO/AVC
Продолжительность : 23 м. 39 с.
Вид битрейта : Переменный
Битрейт : 4035 Кбит/сек
Максимальный битрейт : 15,0 Мбит/сек
Ширина : 1920 пикселей
Высота : 1080 пикселей
Соотношение сторон : 16:9
Режим частоты кадров : Постоянный
Частота кадров : 23,976 (24000/1001) кадра/сек
Цветовое пространство : YUV
Субдискретизация насыщенности : 4:2:0
Битовая глубина : 8 бит
Тип развёртки : Прогрессивная
Бит/(Пиксели*Кадры) : 0.081
Размер потока : 683 Мбайт (97%)
Default : Да
Forced : Нет
Цветовой диапазон : Limited
Основные цвета : BT.709
Характеристики трансфера : BT.709
Коэффициенты матрицы : BT.709

Аудио
Идентификатор : 2
Формат : AAC
Формат/Информация : Advanced Audio Codec
Профиль формата : LC
Идентификатор кодека : A_AAC
Продолжительность : 23 м. 39 с.
Битрейт : 125 Кбит/сек
Каналы : 2 канала
Расположение каналов : Front: L R
Частота : 48,0 КГц
Частота кадров : 46,875 кадров/сек (1024 spf)
Метод сжатия : С потерями
Размер потока : 21,2 Мбайт (3%)
Default : Да
Forced : Нет

Текст
Идентификатор : 3
Формат : ASS
Идентификатор кодека : S_TEXT/ASS
Идентификатор кодека/Информация : Advanced Sub Station Alpha
Продолжительность : 23 м. 12 с.
Битрейт : 79 бит/сек
Count of elements : 252
Метод сжатия : Без потерь
Размер потока : 13,5 Кбайт (0%)
Язык : English
Default : Да
Forced : Нет
info [Профиль]  [ЛС] 

broneko

Пол: Пол:Муж

Стаж: 4 года 3 месяца

Сообщений: 20

Россия
Рейтинг

post 11-Апр-2017 22:09 (спустя 23 часа) [-]3[+]

[Цитировать] 

блин, все передирают одно и то же описание, и фиг бы с этим, но вот это вот _описание_ ни о чем не говорит, черт побери! о чем вообще тайтл, кто главные герои, какой сеттинг?!
info [Профиль]  [ЛС] 

Gasparde

Пол: Пол:Муж

Стаж: 3 года 7 месяцев

Сообщений: 6

Россия
Рейтинг

post 11-Апр-2017 23:19 (спустя 1 час 10 минут) [-]0[+]

[Цитировать] 

Да как то по скриншотам все понятно, даже без описания. bs
info [Профиль]  [ЛС] 

evegen87

Пол: Пол:Муж

Стаж: 5 лет

Сообщений: 31

Белоруссия
Рейтинг

post 12-Апр-2017 01:57 (спустя 2 часа 38 минут) [-]3[+]

[Цитировать] 

Очередной ояш спасает мир.
info [Профиль]  [ЛС] 

anoningen

Стаж: 3 года 11 месяцев

Сообщений: 411

Самоа
Рейтинг

post 17-Апр-2017 23:07 (спустя 5 дней) [-]0[+]

[Цитировать] 

Добавил 2 серию.
info [Профиль]  [ЛС] 

mvv55

Пол: Пол:Муж

Стаж: 6 лет 5 месяцев

Сообщений: 128

Украина
Рейтинг

post 18-Апр-2017 01:21 (спустя 2 часа 14 минут) [-]1[+]

[Цитировать] 

Кто то может написать внятное описание о чем оно*?
info [Профиль]  [ЛС] 

HDN ofc

Пол: Пол:Муж

Стаж: 6 лет 7 месяцев

Сообщений: 38

Россия
Рейтинг

post 18-Апр-2017 02:21 (спустя 59 минут) [-]0[+]

[Цитировать] 

как минимум уже вызывает интерес от того, что аниме от автора ''Пираты черной лагуны"
info [Профиль]  [ЛС] 

anoningen

Стаж: 3 года 11 месяцев

Сообщений: 411

Самоа
Рейтинг

post 18-Апр-2017 21:38 (спустя 19 часов) [-]1[+]

[Цитировать] 

mvv55
broneko
Изменил описание на более информативное.
Однажды парень по имени Сота Мизушино решает на планшете посмотреть своё любимое аниме. Но вдруг планшет начал барахлить и показывать синий экран. Вместе с планшетом начала барахлить и реальность: сначала Сота увидел вокруг себя частицы выдуманного в аниме мира, а затем и вовсе перенёсся туда, прямо в разгар боя. Глюки на этом не закончились, планшет сработал, как портал, и Сота вернулся в свой мир вместе с героиней Селесией. Вскоре Селесия в шоке узнала, что она всего лишь персонаж аниме…
info [Профиль]  [ЛС] 

anoningen

Стаж: 3 года 11 месяцев

Сообщений: 411

Самоа
Рейтинг

post 24-Апр-2017 00:56 (спустя 5 дней) [-]0[+]

[Цитировать] 

Добавил 3 серию.


добавлено спустя 1 час 24 минуты 52 секунды:

Перезалил видеофайлы на 1080p 8bit WebRip от Хорриблов.
info [Профиль]  [ЛС] 
Показать сообщения:    
Ответить на тему

Текущее время: 24-Апр 13:29

Часовой пояс: GMT + 4



Вы не можете начинать темы
Вы не можете отвечать на сообщения
Вы не можете редактировать свои сообщения
Вы не можете удалять свои сообщения
Вы не можете голосовать в опросах
Вы не можете прикреплять файлы к сообщениям
Вы не можете скачивать файлы