Ошибка
Загрузка...

Ярость Бахамута: непорочная душа/ Shingeki no Bahamut: Virgin Soul [TV] [1-24 из 24] [2017] [Приключения, Фэнтези, Экшен, Сверхъестественное] [HDTVRip] [720p] [Субтитры (JAP)]

Ответить на тему
 
Автор Сообщение

anoningen

Стаж: 4 года 5 месяцев

Сообщений: 517

Самоа
Рейтинг

post 08-Апр-2017 19:50 1[+]

[Цитировать] 

Ярость Бахамута: непорочная душа
Shingeki no Bahamut: Virgin Soul
神撃のバハムート Virgin Soul

Год выпуска:
2017.
Тип: TV
Жанр: Приключения, Фэнтези, Экшен, Сверхъестественное
Режиссер: Сато Кэйити
Студия:
Продолжительность: 24 эп. по 25 мин
Русские субтитры: ASS, внешним файлом

Переводчик: Zottig
Редактор: AleX_MytH

Описание: Более двух тысяч лет назад на земле властвовал дракон Бахамут. Огромный и могущественный, своим пламенем он сжигал целые города. Тогда все живые существа: люди, ангелы, боги и демоны решили, что пришло время прекратить распри и объединиться во имя победы над чудовищем. Бахамут был запечатан общими усилиями, и в мире вновь воцарились спокойствие и безмятежность. Однако спустя много лет демоны всё же стали плести интриги: они начали искать вторую часть печати, чтобы оживить Бахамута и с его помощью заполучить власть над миром.
Главными героями повествования были охотники за головами Фаваро Леоне и Кайсар Лидфальд, а также девушка Амира. События второго сезона происходят спустя 10 лет после предыдущего. На первом плане - новая героиня Нина Дранго, впечатлительная и совсем юная девушка.
Что же ждёт её и остальных героев в мире, где на первый взгляд всё тихо и спокойно? Есть лишь предчувствия и догадки Фаваро: Бахамут не дремлет, и хрупкое равновесие в мире может быть нарушено в любой момент.
Автор рипа: HorribleSubs
Качество: HDTVRip
Формат видео: MPEG-4
Видео: AVC, 10 бит, 1280x720; 23.976 кадра/сек; 2042 Кбит/сек, (16:9)
Аудио: AAC, 48,0 КГц, переменный ~192 Кбит/сек, 2 канала
Общее
Уникальный идентификатор : 235017686265978161626885624268544156668 (0xB0CEC28BB10F1858A316A7438A3223FC)
Полное имя : G:\Anime\Shingeki no Bahamut - Virgin Soul\[HorribleSubs] Shingeki no Bahamut - Virgin Soul - 01 [720p].mkv
Формат : Matroska
Версия формата : Version 4 / Version 2
Размер файла : 386 Мбайт
Продолжительность : 24 м. 10 с.
Общий поток : 2235 Кбит/сек
Дата кодирования : UTC 2017-04-07 23:42:30
Программа кодирования : mkvmerge v8.3.0 ('Over the Horizon') 32bit
Библиотека кодирования : libebml v1.3.1 + libmatroska v1.4.2
Attachments : OpenSans-Semibold.ttf

Видео
Идентификатор : 1
Формат : AVC
Формат/Информация : Advanced Video Codec
Профиль формата : High 10@L5
Параметр CABAC формата : Да
Параметр ReFrames формата : 16 кадров
Идентификатор кодека : V_MPEG4/ISO/AVC
Продолжительность : 24 м. 10 с.
Битрейт : 2042 Кбит/сек
Ширина : 1280 пикселей
Высота : 720 пикселей
Соотношение сторон : 16:9
Режим частоты кадров : Постоянный
Частота кадров : 23,976 (24000/1001) кадра/сек
Цветовое пространство : YUV
Субдискретизация насыщенности : 4:2:0
Битовая глубина : 10 бит
Тип развёртки : Прогрессивная
Бит/(Пиксели*Кадры) : 0.092
Размер потока : 353 Мбайт (91%)
Библиотека кодирования : x264 core 148 r2665 a01e339
Настройки программы : cabac=1 / ref=16 / deblock=1:1:1 / analyse=0x3:0x133 / me=umh / subme=10 / psy=1 / psy_rd=0.70:0.10 / mixed_ref=1 / me_range=24 / chroma_me=1 / trellis=2 / 8x8dct=1 / cqm=0 / deadzone=21,11 / fast_pskip=1 / chroma_qp_offset=-3 / threads=22 / lookahead_threads=5 / sliced_threads=0 / nr=0 / decimate=1 / interlaced=0 / bluray_compat=0 / constrained_intra=0 / bframes=10 / b_pyramid=2 / b_adapt=2 / b_bias=0 / direct=3 / weightb=1 / open_gop=0 / weightp=2 / keyint=250 / keyint_min=23 / scenecut=40 / intra_refresh=0 / rc_lookahead=60 / rc=crf / mbtree=1 / crf=18.0 / qcomp=0.60 / qpmin=0 / qpmax=81 / qpstep=4 / ip_ratio=1.40 / aq=3:0.80
Язык : English
Default : Да
Forced : Нет

Аудио
Идентификатор : 2
Формат : AAC
Формат/Информация : Advanced Audio Codec
Профиль формата : LC
Идентификатор кодека : A_AAC
Продолжительность : 24 м. 10 с.
Битрейт : 192 Кбит/сек
Каналы : 2 канала
Расположение каналов : Front: L R
Частота : 48,0 КГц
Частота кадров : 46,875 кадров/сек (1024 spf)
Метод сжатия : С потерями
Размер потока : 32,6 Мбайт (8%)
Default : Да
Forced : Нет

Текст
Идентификатор : 3
Формат : ASS
Идентификатор кодека : S_TEXT/ASS
Идентификатор кодека/Информация : Advanced Sub Station Alpha
Продолжительность : 24 м. 8 с.
Битрейт : 56 бит/сек
Count of elements : 183
Метод сжатия : Без потерь
Размер потока : 10,00 Кбайт (0%)
Язык : English
Default : Да
Forced : Нет
info [Профиль]  [ЛС] 

realgrimma

Стаж: 7 лет 7 месяцев

Сообщений: 135

Рейтинг

post 08-Апр-2017 20:40 (спустя 50 минут) [-]0[+]

[Цитировать] 

Не очень похоже на первый сезон, интереснее, тот просто проглотил, как очередной теил, этот хочется разжевать. Рисовка более четкая, что ли, более дорогая. Гусь больше всех радует.
info [Профиль]  [ЛС] 

anoningen

Стаж: 4 года 5 месяцев

Сообщений: 517

Самоа
Рейтинг

post 16-Апр-2017 00:21 (спустя 7 дней) [-]0[+]

[Цитировать] 

Добавил 2 серию.
info [Профиль]  [ЛС] 

anoningen

Стаж: 4 года 5 месяцев

Сообщений: 517

Самоа
Рейтинг

post 23-Апр-2017 16:27 (спустя 7 дней) [-]0[+]

[Цитировать] 

Добавил 3 серию.
info [Профиль]  [ЛС] 

anoningen

Стаж: 4 года 5 месяцев

Сообщений: 517

Самоа
Рейтинг

post 30-Апр-2017 21:44 (спустя 7 дней) [-]0[+]

[Цитировать] 

Добавил 4 серию.
info [Профиль]  [ЛС] 

anoningen

Стаж: 4 года 5 месяцев

Сообщений: 517

Самоа
Рейтинг

post 09-Май-2017 19:56 (спустя 8 дней) [-]0[+]

[Цитировать] 

Добавил 5 серию.
info [Профиль]  [ЛС] 

anoningen

Стаж: 4 года 5 месяцев

Сообщений: 517

Самоа
Рейтинг

post 14-Май-2017 16:54 (спустя 4 дня) [-]0[+]

[Цитировать] 

Добавил 6 серию.
info [Профиль]  [ЛС] 

anoningen

Стаж: 4 года 5 месяцев

Сообщений: 517

Самоа
Рейтинг

post 21-Май-2017 01:41 (спустя 6 дней) [-]0[+]

[Цитировать] 

Добавил 7 серию.
info [Профиль]  [ЛС] 

anoningen

Стаж: 4 года 5 месяцев

Сообщений: 517

Самоа
Рейтинг

post 29-Май-2017 01:25 (спустя 7 дней) [-]0[+]

[Цитировать] 

Добавил 8 серию.
info [Профиль]  [ЛС] 

anoningen

Стаж: 4 года 5 месяцев

Сообщений: 517

Самоа
Рейтинг

post 05-Июн-2017 23:01 (спустя 7 дней) [-]0[+]

[Цитировать] 

Добавил 9 серию.
info [Профиль]  [ЛС] 

anoningen

Стаж: 4 года 5 месяцев

Сообщений: 517

Самоа
Рейтинг

post 14-Июн-2017 00:55 (спустя 8 дней) [-]0[+]

[Цитировать] 

Добавил 10 серию.
info [Профиль]  [ЛС] 

anoningen

Стаж: 4 года 5 месяцев

Сообщений: 517

Самоа
Рейтинг

post 19-Июн-2017 21:17 (спустя 5 дней) [-]0[+]

[Цитировать] 

Добавил 11 серию.
info [Профиль]  [ЛС] 

anoningen

Стаж: 4 года 5 месяцев

Сообщений: 517

Самоа
Рейтинг

post 02-Июл-2017 20:41 (спустя 12 дней) [-]0[+]

[Цитировать] 

Добавил 12 и 13 серии.
info [Профиль]  [ЛС] 

anoningen

Стаж: 4 года 5 месяцев

Сообщений: 517

Самоа
Рейтинг

post 24-Июл-2017 00:19 (спустя 21 день) [-]0[+]

[Цитировать] 

Добавил 14 - 16 серии.
info [Профиль]  [ЛС] 

anoningen

Стаж: 4 года 5 месяцев

Сообщений: 517

Самоа
Рейтинг

post 05-Авг-2017 19:57 (спустя 12 дней) [-]0[+]

[Цитировать] 

Добавил 17 серию.
info [Профиль]  [ЛС] 

anoningen

Стаж: 4 года 5 месяцев

Сообщений: 517

Самоа
Рейтинг

post 29-Авг-2017 00:14 (спустя 23 дня) [-]0[+]

[Цитировать] 

Добавил 18 - 19 серии.
info [Профиль]  [ЛС] 

anoningen

Стаж: 4 года 5 месяцев

Сообщений: 517

Самоа
Рейтинг

post 10-Сен-2017 23:40 (спустя 12 дней) [-]0[+]

[Цитировать] 

Добавил 20 серию.
info [Профиль]  [ЛС] 

anoningen

Стаж: 4 года 5 месяцев

Сообщений: 517

Самоа
Рейтинг

post 14-Сен-2017 21:55 (спустя 3 дня) [-]0[+]

[Цитировать] 

Добавил 21 серию.
info [Профиль]  [ЛС] 

anoningen

Стаж: 4 года 5 месяцев

Сообщений: 517

Самоа
Рейтинг

post 26-Сен-2017 22:47 (спустя 12 дней) [-]0[+]

[Цитировать] 

Добавил 22 - 23 серии.
info [Профиль]  [ЛС] 

anoningen

Стаж: 4 года 5 месяцев

Сообщений: 517

Самоа
Рейтинг

post 01-Окт-2017 01:14 (спустя 4 дня) [-]0[+]

[Цитировать] 

Добавил 24 серию.
info [Профиль]  [ЛС] 
Показать сообщения:    
Ответить на тему

Текущее время: 24-Окт 02:27

Часовой пояс: GMT + 4



Вы не можете начинать темы
Вы не можете отвечать на сообщения
Вы не можете редактировать свои сообщения
Вы не можете удалять свои сообщения
Вы не можете голосовать в опросах
Вы не можете прикреплять файлы к сообщениям
Вы не можете скачивать файлы