Ошибка

Берсерк (ТВ-3) / Berserk [TV] [01-09 из 13] [2017] [приключения, фэнтези] [WEBRip] [720p] [Любительский (JAP+SUB)]

Ответить на тему
 
Автор Сообщение

TotSamiySoer

Пол: Пол:Муж

Стаж: 2 года 6 месяцев

Сообщений: 289

Россия
Рейтинг

post 08-Апр-2017 19:07 2[+]

[Цитировать] 

Берсерк (ТВ-3) / Berserk

Год выпуска: 2017
Страна: Япония
Жанр: приключения, фэнтези
Тип: ТВ
Продолжительность: 13 эп. по ~25 мин.
Студия: Millepensee & GEMBA
Режиссер: Итагаки Син
Озвучание: двухголосое (муж./жен.): Soer, MezIdA [DeadLine Studio]
Субтитры: Anku, mutagenb
Описание:
Гатс, также известный как Чёрный Мечник, ищет убежища от демонических сил, преследующих его и его женщину, а также отмщения мужчине, заклеймившему его «нечистой жертвой». Поддерживаемый только своей титанической силой, умениями и мечом, Гатс вынужден бороться со своей мрачной судьбой, всё время сражаясь с яростью, способной лишить его человечности.
«Берсерк» — это мрачная и тяжёлая история жестоких битв на мечах и зловещей судьбы, выполненная в манере Шекспировского «Макбета».
Информация о видео:

Качество: WEBRip | Формат: .mkv | Рип: HorribleSubs
Видео: x264(8 bit.), 1280x720, 1776 Kbps, 23.976 fps
Звук (Russian): AC3, 192 kbps, 48.0 KHz, 2.0 ch | [2VO]
Звук (Japanese): ААС, 128 kbps, 44.1 KHz, 2.0 ch | Original
Субтитры (Russian): ass, встроенные | Надписи
Субтитры (Russian): ass, встроенные | Субтитры
Хардсаб: отсутствует

13. Распахнувшийся мир
14. Зимнее путешествие
15. Знамя парящего клинка
16. Лес демонических тварей
17. Заключение в мире теней
18. Смертельная битва со стадом демонов
19. Тайны молитвы
20. Падение нравов Клифота
21. Доспехи берсерка

General
Unique ID : 235522647673803477324128572036393231757 (0xB1300310B43FADD089FAAB3F52F4658D)
Complete name : D:\[DLS] Berserk [TV3] [Soer & MezIdA]\[DeadLine] Berserk - 13 [Soer & MezIdA] [WEBRip 720p].mkv
Format : Matroska
Format version : Version 4 / Version 2
File size : 367 MiB
Duration : 24mn 28s
Overall bit rate : 2 099 Kbps
Encoded date : UTC 2017-04-08 12:26:48
Writing application : mkvmerge v7.6.0 ('Garden of Dreams') 64bit built on Feb 8 2015 13:04:34
Writing library : libebml v1.3.1 + libmatroska v1.4.2
Attachments : OpenSans-Semibold.ttf

Video
ID : 1
Format : AVC
Format/Info : Advanced Video Codec
Format profile : High@L4
Format settings, CABAC : Yes
Format settings, ReFrames : 6 frames
Codec ID : V_MPEG4/ISO/AVC
Duration : 24mn 27s
Bit rate : 1 776 Kbps
Width : 1 280 pixels
Height : 720 pixels
Display aspect ratio : 16:9
Frame rate mode : Variable
Frame rate : 23.976 (23976/1000) fps
Color space : YUV
Chroma subsampling : 4:2:0
Bit depth : 8 bits
Scan type : Progressive
Bits/(Pixel*Frame) : 0.080
Stream size : 311 MiB (85%)
Writing library : x264 core 120 r2120 0c7dab9
Encoding settings : cabac=1 / ref=6 / deblock=1:1:1 / analyse=0x3:0x113 / me=umh / subme=8 / psy=1 / psy_rd=0.40:0.00 / mixed_ref=1 / me_range=16 / chroma_me=1 / trellis=1 / 8x8dct=1 / cqm=0 / deadzone=21,11 / fast_pskip=1 / chroma_qp_offset=-2 / threads=4 / sliced_threads=0 / nr=0 / decimate=1 / interlaced=0 / bluray_compat=0 / constrained_intra=0 / bframes=3 / b_pyramid=2 / b_adapt=2 / b_bias=0 / direct=3 / weightb=1 / open_gop=0 / weightp=2 / keyint=250 / keyint_min=23 / scenecut=40 / intra_refresh=0 / rc_lookahead=50 / rc=2pass / mbtree=1 / bitrate=1776 / ratetol=1.0 / qcomp=0.60 / qpmin=0 / qpmax=69 / qpstep=4 / cplxblur=20.0 / qblur=0.5 / vbv_maxrate=3552 / vbv_bufsize=8880 / nal_hrd=none / ip_ratio=1.40 / aq=1:0.60
Default : Yes
Forced : No

Audio #1
ID : 2
Format : AC-3
Format/Info : Audio Coding 3
Mode extension : CM (complete main)
Format settings, Endianness : Big
Codec ID : A_AC3
Duration : 24mn 27s
Bit rate mode : Constant
Bit rate : 192 Kbps
Channel(s) : 2 channels
Channel positions : Front: L R
Sampling rate : 48.0 KHz
Frame rate : 31.250 fps (1536 spf)
Compression mode : Lossy
Stream size : 33.6 MiB (9%)
Title : [Soer & MezIdA] [Deadline Studio]
Language : Russian
Default : Yes
Forced : Yes

Audio #2
ID : 3
Format : AAC
Format/Info : Advanced Audio Codec
Format profile : LC
Codec ID : A_AAC
Duration : 24mn 27s
Bit rate : 128 Kbps
Channel(s) : 2 channels
Channel positions : Front: L R
Sampling rate : 44.1 KHz
Frame rate : 43.066 fps (1024 spf)
Compression mode : Lossy
Stream size : 22.4 MiB (6%)
Title : Original
Language : Japanese
Default : No
Forced : No

Text #1
ID : 4
Format : ASS
Codec ID : S_TEXT/ASS
Codec ID/Info : Advanced Sub Station Alpha
Duration : 22mn 27s
Bit rate : 5 bps
Count of elements : 9
Compression mode : Lossless
Stream size : 953 Bytes (0%)
Title : Надписи
Language : Russian
Default : Yes
Forced : Yes

Text #2
ID : 5
Format : ASS
Codec ID : S_TEXT/ASS
Codec ID/Info : Advanced Sub Station Alpha
Duration : 24mn 24s
Bit rate : 131 bps
Count of elements : 314
Compression mode : Lossless
Stream size : 23.6 KiB (0%)
Title : Полные субтитры
Language : Russian
Default : No
Forced : No

http://tapochek.net/viewtopic.php?t=200020 - наличие озвучки
info [Профиль]  [ЛС] 

TotSamiySoer

Пол: Пол:Муж

Стаж: 2 года 6 месяцев

Сообщений: 289

Россия
Рейтинг

post 08-Апр-2017 19:09 (спустя 2 минуты) [-]1[+]

[Цитировать] 

Добавлены: 13 (1) и 14 (2) серии.
info [Профиль]  [ЛС] 

TotSamiySoer

Пол: Пол:Муж

Стаж: 2 года 6 месяцев

Сообщений: 289

Россия
Рейтинг

post 15-Апр-2017 18:08 (спустя 6 дней) [-]1[+]

[Цитировать] 

Добавлена: 15 (3) серия.
info [Профиль]  [ЛС] 

TotSamiySoer

Пол: Пол:Муж

Стаж: 2 года 6 месяцев

Сообщений: 289

Россия
Рейтинг

post 22-Апр-2017 22:35 (спустя 7 дней) [-]1[+]

[Цитировать] 

Добавлена: 16 (4) серия.
info [Профиль]  [ЛС] 

Electron

Пол: Пол:Муж

Стаж: 4 года 4 месяца

Сообщений: 17

Россия
Рейтинг

post 24-Апр-2017 09:28 (спустя 1 день 10 часов) [-]4[+]

[Цитировать] 

Рисовка конечно ужасна

_________________
Хаос, смерть, самоликвидация
info [Профиль]  [ЛС] 

TotSamiySoer

Пол: Пол:Муж

Стаж: 2 года 6 месяцев

Сообщений: 289

Россия
Рейтинг

post 30-Апр-2017 21:49 (спустя 6 дней) [-]1[+]

[Цитировать] 

Добавлена: 17 (5) серия.
info [Профиль]  [ЛС] 

TotSamiySoer

Пол: Пол:Муж

Стаж: 2 года 6 месяцев

Сообщений: 289

Россия
Рейтинг

post 08-Май-2017 20:39 (спустя 7 дней) [-]1[+]

[Цитировать] 

Добавлена: 18 (6) серия.
info [Профиль]  [ЛС] 

Promisaid

Стаж: 7 лет 7 месяцев

Сообщений: 25

Япония
Рейтинг

post 08-Май-2017 21:03 (спустя 23 минуты) [-]3[+]

[Цитировать] 

рисовка и музыка просто убивают, нет чтоб сделать все в стиле оригинального аниме, они выпустили эту дичь
info [Профиль]  [ЛС] 

kalbungaa_rus

Пол: Пол:Муж

Стаж: 2 года 10 месяцев

Сообщений: 115

Украина
Рейтинг

post 08-Май-2017 21:11 (спустя 8 минут) [-]-4[+]

[Цитировать] 

Promisaid писал(а):

рисовка и музыка просто убивают, нет чтоб сделать все в стиле оригинального аниме, они выпустили эту дичь
А мне рисовка доставляет. Но аниме, как и манга, скатиться...

_________________
info [Профиль]  [ЛС] 

TotSamiySoer

Пол: Пол:Муж

Стаж: 2 года 6 месяцев

Сообщений: 289

Россия
Рейтинг

post 15-Май-2017 23:57 (спустя 7 дней) [-]0[+]

[Цитировать] 

Добавлена: 19 (7) серия.
info [Профиль]  [ЛС] 

Kyoha

Стаж: 3 года

Сообщений: 8

Рейтинг

post 16-Май-2017 19:20 (спустя 19 часов) [-]0[+]

[Цитировать] 

kalbungaa_rus писал(а):

Promisaid писал(а):

рисовка и музыка просто убивают, нет чтоб сделать все в стиле оригинального аниме, они выпустили эту дичь
А мне рисовка доставляет. Но аниме, как и манга, скатиться...
Как по мне,что эта арка,что следующая ничуть не хуже мейнстримового золотого века.И слива тут никакого нет,просто раньше "трава зеленее была".
По теме- рисовка правда ублюдская.Не понимаю,зачем так нужно было,когда есть пример замечательного первого сезона 90ых годов
info [Профиль]  [ЛС] 

TotSamiySoer

Пол: Пол:Муж

Стаж: 2 года 6 месяцев

Сообщений: 289

Россия
Рейтинг

post 21-Май-2017 22:56 (спустя 5 дней) [-]0[+]

[Цитировать] 

Добавлена: 20 (8) серия.
info [Профиль]  [ЛС] 

an9rik

Стаж: 7 лет 2 месяца

Сообщений: 6

Россия
Рейтинг

post 23-Май-2017 17:28 (спустя 1 день 18 часов) [-]2[+]

[Цитировать] 

так что тут новая серия будет раздаваться или нет
info [Профиль]  [ЛС] 

TotSamiySoer

Пол: Пол:Муж

Стаж: 2 года 6 месяцев

Сообщений: 289

Россия
Рейтинг

post 27-Май-2017 20:27 (спустя 4 дня) [-]0[+]

[Цитировать] 

Добавлена: 21 (9) серия.
info [Профиль]  [ЛС] 
Показать сообщения:    
Ответить на тему

Текущее время: 29-Май 13:39

Часовой пояс: GMT + 4



Вы не можете начинать темы
Вы не можете отвечать на сообщения
Вы не можете редактировать свои сообщения
Вы не можете удалять свои сообщения
Вы не можете голосовать в опросах
Вы не можете прикреплять файлы к сообщениям
Вы не можете скачивать файлы