Ошибка
Загрузка...

Снежная королева 3. Огонь и лед (Алексей Цицилин) [2016 г., Мультфильм, комедия, приключения, семейный, WEB-DLRip] | iTunes

Ответить на тему
 
Автор Сообщение

Xohllenok

Пол: Пол:Муж

Стаж: 2 года 6 месяцев

Сообщений: 1067

Россия
Рейтинг

post 09-Фев-2017 10:20 0[+]

[Цитировать] 


Снежная королева 3. Огонь и лед
«-»

Год выхода: 2016
Страна: Россия
Жанр: Мультфильм, комедия, приключения, семейный
Продолжительность: 01:29:36
Перевод: Не требуется | iTunes
Субтитры: Отсутствуют
Режиссер: Алексей Цицилин
В ролях: Наталия Быстрова, Филипп Лебедев, Диомид Виноградов, Александр Груздев, Михаил Тихонов, Николай Быстров, Ольга Шорохова, Ольга Зубкова, Всеволод Кузнецов, Филл Савенков
О фильме: Редкий дар ввязываться во всевозможные неприятности — их семейная черта, да и что взять с тех, кто вырос среди снегов в компании троллей. Но повзрослев, Кай и Герда выходят на новый уровень — теперь они станут виновниками катастрофы мирового масштаба…
Качество: WEB-DLRip
Формат: avi
Видео кодек: XviD
Аудио кодек: AC3
Видео: 720x320, 25.000 fps, 1791 Кбит/с
Аудио: 384 kb/s, 6 ch, 48.0 KHz
Общее
Полное имя : D:\Новая папка\фильмы\S.Koroleva.3.2O17.O.WEB-DLRip.14OOMB.avi
Формат : AVI
Формат/Информация : Audio Video Interleave
Размер файла : 1,37 Гбайт
Продолжительность : 1 ч. 29 м.
Общий поток : 2184 Кбит/сек
Программа кодирования : VirtualDubMod 1.5.10.2 (build 2540/release)
Библиотека кодирования : VirtualDubMod build 2540/release

Видео
Идентификатор : 0
Формат : MPEG-4 Visual
Профиль формата : Advanced Simple@L5
Параметр BVOP формата : 2
Параметр QPel формата : Нет
Параметр GMC формата : Без точки перехода
Параметр матрицы формата : Default (MPEG)
Идентификатор кодека : XVID
Идентификатор кодека/Подсказка : XviD
Продолжительность : 1 ч. 29 м.
Битрейт : 1791 Кбит/сек
Ширина : 720 пикселей
Высота : 320 пикселей
Соотношение сторон : 2,25:1
Частота кадров : 24,000 кадра/сек
Цветовое пространство : YUV
Субдискретизация насыщенности : 4:2:0
Битовая глубина : 8 бит
Тип развёртки : Прогрессивная
Метод сжатия : С потерями
Бит/(Пиксели*Кадры) : 0.324
Размер потока : 1,12 Гбайт (82%)
Библиотека кодирования : XviD 1.2.1 (UTC 2008-12-04)

Аудио
Идентификатор : 1
Формат : AC-3
Формат/Информация : Audio Coding 3
Расширение режима : CM (complete main)
Параметр Endianness формата : Big
Идентификатор кодека : 2000
Продолжительность : 1 ч. 29 м.
Вид битрейта : Постоянный
Битрейт : 384 Кбит/сек
Каналы : 6 каналов
Расположение каналов : Front: L C R, Side: L R, LFE
Частота : 48,0 КГц
Битовая глубина : 16 бит
Метод сжатия : С потерями
Размер потока : 246 Мбайт (18%)
Выравнивание : Разделение по промежуткам
Продолжительность промежутка : 42 мс. (1,00 видеокадр)
Время предзагрузки промежутка : 500 мс.

info [Профиль]  [ЛС] 

BZzz

Пол: Пол:Муж

Стаж: 5 лет 10 месяцев

Сообщений: 3840

Россия
Рейтинг

post 09-Фев-2017 14:44 (спустя 4 часа) [-]1[+]

[Цитировать] 

Molodit
Xohllenok
 !  BZzz:

Цитата:

Всем участникам данного форума запрещается:
2.11. Использовать в общении на форуме язык, отличный от русского, и шрифт, отличный от кириллического. В форум встроены Виртуальная русская клавиатура и транслит, кроме того, в Интернете существует целый ряд подобных сервисов, если наш транслит Вас не устраивает по каким-либо причинам. Модераторы и Администраторы имеют право редактировать или удалять сообщения, написанные на языке, отличном от русского, и шрифтом, отличным от кириллического, без предупреждения.

_________________
info [Профиль]  [ЛС] 

Xohllenok

Пол: Пол:Муж

Стаж: 2 года 6 месяцев

Сообщений: 1067

Россия
Рейтинг

post 09-Фев-2017 16:36 (спустя 1 час 51 минута) [-]0[+]

[Цитировать] 

BZzz
Понятно!

_________________
info [Профиль]  [ЛС] 
Показать сообщения:    
Ответить на тему

Текущее время: 21-Сен 23:35

Часовой пояс: GMT + 4



Вы не можете начинать темы
Вы не можете отвечать на сообщения
Вы не можете редактировать свои сообщения
Вы не можете удалять свои сообщения
Вы не можете голосовать в опросах
Вы не можете прикреплять файлы к сообщениям
Вы не можете скачивать файлы