Ошибка

Снежная королева 3. Огонь и лед ( Алексей Цицилин) [2016, Мультфильм, комедия, приключения, семейный, WEB-DL 720p] | Лицензия

Ответить на тему
 
Автор Сообщение

L

Пол: Пол:Муж

Стаж: 7 лет

Сообщений: 11370

Украина
Рейтинг

post 09-Фев-2017 09:39 0[+]

[Цитировать] 

Снежная королева 3. Огонь и лед
Оригинальное название: Снежная королева 3. Огонь и лед
Год выпуска: 2016
Жанр: Мультфильм, комедия, приключения, семейный
Выпущено: Россия
Продолжительность: 01:29:36
Язык: Русский | Лицензия

Режиссер: Алексей Цицилин
В ролях: Наталия Быстрова, Филипп Лебедев, Диомид Виноградов, Александр Груздев, Михаил Тихонов, Николай Быстров, Ольга Шорохова, Ольга Зубкова, Всеволод Кузнецов, Филл Савенков

О фильме: Редкий дар ввязываться во всевозможные неприятности — их семейная черта, да и что взять с тех, кто вырос среди снегов в компании троллей. Но повзрослев, Кай и Герда выходят на новый уровень — теперь они станут виновниками катастрофы мирового масштаба…

| |

Качество: WEB-DL 720p
Формат: MKV
Видео: MPEG-4 AVC, 3937 Кбит/с, 1280x572
Аудио: AC3, 6 ch, 384 Кбит/с
Уникальный идентификатор : 252553431680506173611914797160991239032 (0xBE00058BB6EA527FB4E0F9DFFE372B78)
Полное имя : E:\V\CHegHaYa.k0P0LeBa.3.2O16.O.WEB-DL.72Op.mkv
Формат : Matroska
Версия формата : Version 2
Размер файла : 2,76 Гбайт
Продолжительность : 1 ч. 29 м.
Общий поток : 4408 Кбит/сек
Дата кодирования : UTC 2017-02-08 19:08:46
Программа кодирования : mkvmerge v8.3.0 ('Over the Horizon') 64bit
Библиотека кодирования : libebml v1.3.1 + libmatroska v1.4.2

Видео
Идентификатор : 1
Формат : AVC
Формат/Информация : Advanced Video Codec
Профиль формата : High@L3.1
Параметр CABAC формата : Нет
Параметр ReFrames формата : 2 кадра
Идентификатор кодека : V_MPEG4/ISO/AVC
Продолжительность : 1 ч. 29 м.
Битрейт : 4023 Кбит/сек
Ширина : 1280 пикселей
Высота : 572 пикселя
Соотношение сторон : 2,25:1
Режим частоты кадров : Постоянный
Частота кадров : 24,000 кадра/сек
Цветовое пространство : YUV
Субдискретизация насыщенности : 4:2:0
Битовая глубина : 8 бит
Тип развёртки : Прогрессивная
Бит/(Пиксели*Кадры) : 0.229
Размер потока : 2,52 Гбайт (91%)
Язык : English
Default : Да
Forced : Нет
Цветовой диапазон : Limited
Основные цвета : BT.709
Характеристики трансфера : BT.709
Коэффициенты матрицы : BT.709

Аудио
Идентификатор : 2
Формат : AC-3
Формат/Информация : Audio Coding 3
Расширение режима : CM (complete main)
Параметр Endianness формата : Big
Идентификатор кодека : A_AC3
Продолжительность : 1 ч. 29 м.
Вид битрейта : Постоянный
Битрейт : 384 Кбит/сек
Каналы : 6 каналов
Расположение каналов : Front: L C R, Side: L R, LFE
Частота : 48,0 КГц
Частота кадров : 31,250 кадров/сек (1536 spf)
Битовая глубина : 16 бит
Метод сжатия : С потерями
Размер потока : 246 Мбайт (9%)
Язык : Russian
Default : Да
Forced : Нет

Меню
00:00:00.000 : en:Глава 1
00:06:44.041 : en:Глава 2
00:11:16.541 : en:Глава 3
00:16:12.249 : en:Глава 4
00:21:27.124 : en:Глава 5
00:27:46.415 : en:Глава 6
00:32:54.623 : en:Глава 7
00:40:25.998 : en:Глава 8
00:47:11.206 : en:Глава 9
00:52:10.789 : en:Глава 10
00:59:06.247 : en:Глава 11
01:06:00.747 : en:Глава 12
01:12:48.872 : en:Глава 13
01:19:46.372 : en:Глава 14
info [Профиль]  [ЛС] 
Показать сообщения:    
Ответить на тему

Текущее время: 29-Апр 07:41

Часовой пояс: GMT + 4



Вы не можете начинать темы
Вы не можете отвечать на сообщения
Вы не можете редактировать свои сообщения
Вы не можете удалять свои сообщения
Вы не можете голосовать в опросах
Вы не можете прикреплять файлы к сообщениям
Вы не можете скачивать файлы